Торрент файл
скачать торрент магнет ссылка Добавлен: 29 ноя 2016, 15:36
Размер: 3.37 ГБ
Сидеров: 266
Личеров: 44
Статус: (salma3)
Автор

СообщениеДобавлено: 29 ноя 2016, 15:36 

Не в сети
Супермодератор
Аватара пользователя
Дата регистрации:
15 фев 2012, 16:44
Возраст: 28
Спасибо: 6563 / 2129
Сообщения: 43556
Год выпуска: 2016
Жанр: боевик
Режиссер: Шон Крэхан

В ролях: Сэм Уитвер, Лорен Луна Велес, Ким Коутс, Элисон Ломан, Линдсей Палсифер, Джозеф Джулиан Сория, Рено Уилсон, Марк Невелдайн, Тайлер Росс, Ади Шанкар

О фильме: Он полицейский. Он закон. Он очищает улицы Лос-Анджелеса день за днем. Он выполняет свой долг, свою работу. И мешает ему только одно. Фортуна 500. Криминальная группировка, сидящая во главе всего преступного мира в городе. Но наш герой непобедим. Словно птица Феникс, наш герой избегает смерти. И имя этого героя - Торренс Дауни.



Выпущено: США / Blackmrkt, Living Out Loud Films, Man of Action, Traverse Media
Продолжительность: 01:30:57
Озвучивание: Любительское (одноголосое) [BadBajo]

Файл
Формат: MKV (x264)
Качество: WEB-DL 1080p
Видео: 4439 Kbps, 1916x792
Аудио: Russian / English: AC3, 384 kb/s (6 ch)
Субтитры: English

Format : Matroska
Format version : Version 2
File size : 3.37 GiB
Duration : 1 h 30 min
Overall bit rate : 5 312 kb/s
Encoded date : UTC 2016-11-29 06:02:18
Writing application : mkvmerge v7.8.0 ('River Man') 32bit built on Apr 3 2015 12:11:22
Writing library : libebml v1.3.1 + libmatroska v1.4.2
Video
ID : 1
Format : AVC
Format/Info : Advanced Video Codec
Format profile : High@L4
Format settings, CABAC : Yes
Format settings, ReFrames : 5 frames
Codec ID : V_MPEG4/ISO/AVC
Duration : 1 h 30 min
Bit rate : 4 439 kb/s
Width : 1 916 pixels
Height : 792 pixels
Display aspect ratio : 2.40:1
Frame rate mode : Constant
Frame rate : 23.976 FPS
Color space : YUV
Chroma subsampling : 4:2:0
Bit depth : 8 bits
Scan type : Progressive
Bits/(Pixel*Frame) : 0.122
Stream size : 2.82 GiB (84%)
Language : English
Default : Yes
Forced : No
Color range : Limited
Color primaries : BT.709
Transfer characteristics : BT.709
Matrix coefficients : BT.709
Audio #1
ID : 2
Format : AC-3
Format/Info : Audio Coding 3
Mode extension : CM (complete main)
Format settings, Endianness : Big
Codec ID : A_AC3
Duration : 1 h 30 min
Bit rate mode : Constant
Bit rate : 384 kb/s
Channel(s) : 6 channels
Channel positions : Front: L C R, Side: L R, LFE
Sampling rate : 48.0 kHz
Frame rate : 31.250 FPS (1536 spf)
Compression mode : Lossy
Stream size : 250 MiB (7%)
Language : Russian
Default : Yes
Forced : No
Audio #2
ID : 3
Format : AC-3
Format/Info : Audio Coding 3
Mode extension : CM (complete main)
Format settings, Endianness : Big
Codec ID : A_AC3
Duration : 1 h 30 min
Bit rate mode : Constant
Bit rate : 384 kb/s
Channel(s) : 6 channels
Channel positions : Front: L C R, Side: L R, LFE
Sampling rate : 48.0 kHz
Frame rate : 31.250 FPS (1536 spf)
Compression mode : Lossy
Stream size : 250 MiB (7%)
Language : English
Default : No
Forced : No
Text
ID : 4
Format : UTF-8
Codec ID : S_TEXT/UTF8
Codec ID/Info : UTF-8 Plain Text
Language : English
Default : No
Forced : No
Menu
00:00:00.000 : en:1
00:06:15.834 : en:2
00:12:46.558 : en:3
00:17:29.591 : en:4
00:21:58.318 : en:5
00:27:23.434 : en:6
00:32:40.584 : en:7
00:36:14.839 : en:8
00:45:06.036 : en:9
00:49:44.522 : en:10
00:54:56.667 : en:11
01:01:04.284 : en:12
01:05:48.943 : en:13
01:12:46.443 : en:14
01:18:30.787 : en:15
01:25:07.350 : en:16


_________________
Проголосуй за трекер Открытый торрент трекер - RUS-MEDIA.ORG

Проголосуй Открытый торрент трекер - RUS-MEDIA.ORG



реклама партнёра


Вернуться к началу
 Профиль Отправить личное сообщение  
 
   Похожие торренты   Автор   Торрент   Размер 
В этой теме нет новых непрочитанных сообщений. Офицер Доун / Officer Downe [боевик, 2016] WEB-DLRip, Mvo

salma3

756 | 106

1.45 ГБ

В этой теме нет новых непрочитанных сообщений. Офицер Доун / Officer Downe [фантастика, боевик, комедия, 2016] WEBDLRip, Avo

salma3

108 | 35

1.39 ГБ

В этой теме нет новых непрочитанных сообщений. Офицер спецназа / Qaidi [Боевик, 2002] DVDRip, Dvo [Арена]

salma3

0 | 4

1.37 ГБ

В этой теме нет новых непрочитанных сообщений. Надзиратель / The Parole Officer [Комедия, криминал, 2001] BDRip 720p, Dvo

salma3

9 | 3

5.49 ГБ

В этой теме нет новых непрочитанных сообщений. Расплата / The Accountant [2016] ( Гэвин О’Коннор) [2016, Боевик, триллер, драма, криминал , Blu-Ray Remux 1080p] [DD5.1] [Dub Rus, Englis + Subs Rus, ENG] [ iTunes]

Враг Нароода

3 | 6

26.15 ГБ

В этой теме нет новых непрочитанных сообщений. Изгой-один: Звёздные войны. Истории / Rogue One: A Star Wars Story [2016] ( Гарет Эдвардс) [2016, Фантастика, боевик, приключения , Blu-Ray Remux 1080p] [DD5.1] [Dub Rus, Englis + Subs Rus, ENG] [ iTunes]

Враг Нароода

1 | 0

33.39 ГБ

В этой теме нет новых непрочитанных сообщений. Кикбоксер / Kickboxer [боевик, 2016] WEB-DL 1080p, Mvo

salma3

626 | 35

2.94 ГБ


Начать новую тему Ответить на тему  [ 1 сообщение ] 




Для Мосгорсуда, Роскомнадзора и рекламодателей:: mosgorsud-torrent[собачка]yandex.ru