Торрент файл
скачать торрент магнет ссылка Добавлен: 29 ноя 2016, 15:26
Размер: 7.81 ГБ
Сидеров: 59
Личеров: 19
Статус: (salma3)
Автор

СообщениеДобавлено: 29 ноя 2016, 15:26 

Не в сети
Супермодератор
Аватара пользователя
Дата регистрации:
15 фев 2012, 16:44
Возраст: 29
Спасибо: 7331 / 2147
Сообщения: 73810
Год выхода: 1967
Жанр: мелодрама, комедия
Режиссер: Чарльз Чаплин

В ролях: Марлон Брандо, Софи Лорен, Сидни Чаплин, Типпи Хедрен, Патрик Каргилл, Майкл Медуин, Оливер Джонстон, Джон Пол, Анджела Скулар, Маргарет Разерфорд

О фильме:
Результатом двух мировых войн для Гонконга явился небывалый приток эмигрантов. Наташа Александрова, молодая графиня из России, сбежав в Шанхай четырнадцатилетней девочкой, стала любовницей гангстера. Теперь она вынуждена зарабатывать себе на хлеб сомнительным ремеслом танцовщицы. И вот судьба посылает ей шанс в лице сына нефтяного магната, американского дипломата Огдена Мирса. Как-то раз, изрядно погуляв, Огден возвращается на роскошный лайнер в свою каюту-люкс, где обнаруживает тайком пробравшуюся туда Наташу. Неудобное положение, в которое попадает Мирс, усугубляется не только известием о назначении его послом Соединенных Штатов в Аравии, но и неотвратимой перспективой встречи с законной супругой…



Страна: Великобритания
Студия: Chaplin Film Productions Ltd., Universal Pictures
Продолжительность: 01:47:58
Перевод: Профессиональный (многоголосый, закадровый) ТВ5 + Профессиональный (многоголосый, закадровый) Юниверсал + Профессиональный (двухголосый, закадровый) ICTV

Файл
Формат: Matroska
Качество: BDRip 1080p
Видео: 1920x1040 at 23.976 fps, x264@L4.1, ~9579 kbps avg
Aудио#1: Russian: 48 kHz, AC3, 2/0 (L,R) ch, ~192 kbps avg |Многоголосый закадровый, ТВ5|
Aудио#2: Russian: 48 kHz, AC3, 2/0 (L,R) ch, ~192 kbps avg |Многоголосый закадровый, Юниверсал|
Aудио#3: Ukrainian: 48 kHz, AC3, 2/0 (L,R) ch, ~192 kbps avg |Двухголосый закадровый, ICTV|
Aудио#4: English: 48 kHz, AC3, 2/0 (L,R) ch, ~192 kbps avg
Субтитры: Russian, English, German, French, Spanish, Portuguese, Italian
***Сохранены оригинальные главы как на Blu-ray.
***Релиз - whalekilla.
Общее
Уникальный идентификатор : 186117370126642318559534366756395322020 (0x8C04E6D135129128952C557B56D48AA4)
Полное имя : A.Countess.from.Hong.Kong.1967.BDRip.(1080p).mkv
Формат : Matroska
Версия формата : Version 4 / Version 2
Размер файла : 7,81 Гбайт
Продолжительность : 1 ч. 47 м.
Общий поток : 10,4 Мбит/сек
Название фильма : A Countess from Hong Kong (1967)
Дата кодирования : UTC 2016-11-28 22:45:29
Программа кодирования : mkvmerge v6.9.1 ('Blue Panther') 64bit built on Apr 18 2014 18:23:38
Библиотека кодирования : libebml v1.3.0 + libmatroska v1.4.1
Видео
Идентификатор : 1
Формат : AVC
Формат/Информация : Advanced Video Codec
Профиль формата : High@L4.1
Параметр CABAC формата : Да
Параметр ReFrames формата : 4 кадра
Идентификатор кодека : V_MPEG4/ISO/AVC
Продолжительность : 1 ч. 47 м.
Битрейт : 9579 Кбит/сек
Ширина : 1920 пикселей
Высота : 1040 пикселей
Соотношение сторон : 1,85:1
Режим частоты кадров : Постоянный
Частота кадров : 23,976 кадра/сек
Цветовое пространство : YUV
Субдискретизация насыщенности : 4:2:0
Битовая глубина : 8 бит
Тип развёртки : Прогрессивная
Бит/(Пиксели*Кадры) : 0.200
Размер потока : 7,07 Гбайт (91%)
Заголовок : A Countess from Hong Kong (1967)
Библиотека кодирования : x264 core 130 r2273 b3065e6
Настройки программы : cabac=1 / ref=4 / deblock=1:-3:-3 / analyse=0x3:0x133 / me=umh / subme=11 / psy=1 / psy_rd=1.00:0.10 / mixed_ref=1 / me_range=32 / chroma_me=1 / trellis=2 / 8x8dct=1 / cqm=0 / deadzone=21,11 / fast_pskip=1 / chroma_qp_offset=-3 / threads=6 / lookahead_threads=1 / sliced_threads=0 / nr=0 / decimate=1 / interlaced=0 / bluray_compat=0 / constrained_intra=0 / bframes=3 / b_pyramid=2 / b_adapt=2 / b_bias=0 / direct=3 / weightb=1 / open_gop=0 / weightp=2 / keyint=250 / keyint_min=23 / scenecut=40 / intra_refresh=0 / rc_lookahead=60 / rc=2pass / mbtree=1 / bitrate=9579 / ratetol=1.0 / qcomp=0.60 / qpmin=0 / qpmax=69 / qpstep=4 / cplxblur=20.0 / qblur=0.5 / ip_ratio=1.40 / aq=1:1.00
Язык : English
Default : Да
Forced : Нет
Аудио #1
Идентификатор : 2
Формат : AC-3
Формат/Информация : Audio Coding 3
Расширение режима : CM (complete main)
Параметр Endianness формата : Big
Идентификатор кодека : A_AC3
Продолжительность : 1 ч. 47 м.
Вид битрейта : Постоянный
Битрейт : 192 Кбит/сек
Каналы : 2 канала
Расположение каналов : Front: L R
Частота : 48,0 КГц
Метод сжатия : С потерями
Размер потока : 148 Мбайт (2%)
Заголовок : AC3, 2 ch, 192 Kbps, MVO, 'TB5'
Язык : Russian
Default : Да
Forced : Нет
Аудио #2
Идентификатор : 3
Формат : AC-3
Формат/Информация : Audio Coding 3
Расширение режима : CM (complete main)
Параметр Endianness формата : Big
Идентификатор кодека : A_AC3
Продолжительность : 1 ч. 47 м.
Вид битрейта : Постоянный
Битрейт : 192 Кбит/сек
Каналы : 2 канала
Расположение каналов : Front: L R
Частота : 48,0 КГц
Метод сжатия : С потерями
Размер потока : 148 Мбайт (2%)
Заголовок : AC3, 2 ch, 192 Kbps, MVO, 'Universal'
Язык : Russian
Default : Нет
Forced : Нет
Аудио #3
Идентификатор : 4
Формат : AC-3
Формат/Информация : Audio Coding 3
Расширение режима : CM (complete main)
Параметр Endianness формата : Big
Идентификатор кодека : A_AC3
Продолжительность : 1 ч. 47 м.
Вид битрейта : Постоянный
Битрейт : 192 Кбит/сек
Каналы : 2 канала
Расположение каналов : Front: L R
Частота : 48,0 КГц
Метод сжатия : С потерями
Размер потока : 148 Мбайт (2%)
Заголовок : AC3, 2 ch, 192 Kbps, Українська, 'ICTV'
Язык : Ukrainian
Default : Нет
Forced : Нет
Аудио #4
Идентификатор : 5
Формат : AC-3
Формат/Информация : Audio Coding 3
Расширение режима : CM (complete main)
Параметр Endianness формата : Big
Идентификатор кодека : A_AC3
Продолжительность : 1 ч. 47 м.
Вид битрейта : Постоянный
Битрейт : 192 Кбит/сек
Каналы : 2 канала
Расположение каналов : Front: L R
Частота : 48,0 КГц
Метод сжатия : С потерями
Размер потока : 148 Мбайт (2%)
Заголовок : AC3, 2 ch, 192 Kbps, Original
Язык : English
Default : Нет
Forced : Нет
Текст #1
Идентификатор : 6
Формат : UTF-8
Идентификатор кодека : S_TEXT/UTF8
Идентификатор кодека/Информация : UTF-8 Plain Text
Заголовок : SVictorM
Язык : Spanish
Default : Нет
Forced : Нет
Текст #2
Идентификатор : 7
Формат : UTF-8
Идентификатор кодека : S_TEXT/UTF8
Идентификатор кодека/Информация : UTF-8 Plain Text
Язык : English
Default : Нет
Forced : Нет
Текст #3
Идентификатор : 8
Формат : UTF-8
Идентификатор кодека : S_TEXT/UTF8
Идентификатор кодека/Информация : UTF-8 Plain Text
Язык : German
Default : Нет
Forced : Нет
Текст #4
Идентификатор : 9
Формат : UTF-8
Идентификатор кодека : S_TEXT/UTF8
Идентификатор кодека/Информация : UTF-8 Plain Text
Язык : French
Default : Нет
Forced : Нет
Текст #5
Идентификатор : 10
Формат : UTF-8
Идентификатор кодека : S_TEXT/UTF8
Идентификатор кодека/Информация : UTF-8 Plain Text
Язык : Spanish
Default : Нет
Forced : Нет
Текст #6
Идентификатор : 11
Формат : UTF-8
Идентификатор кодека : S_TEXT/UTF8
Идентификатор кодека/Информация : UTF-8 Plain Text
Язык : Portuguese
Default : Нет
Forced : Нет
Текст #7
Идентификатор : 12
Формат : UTF-8
Идентификатор кодека : S_TEXT/UTF8
Идентификатор кодека/Информация : UTF-8 Plain Text
Язык : Italian
Default : Нет
Forced : Нет
Текст #8
Идентификатор : 13
Формат : UTF-8
Идентификатор кодека : S_TEXT/UTF8
Идентификатор кодека/Информация : UTF-8 Plain Text
Язык : Estonian
Default : Нет
Forced : Нет
Меню
00:00:00.000 : en:00:00:00.000
00:00:00.375 : en:00:00:00.375
00:17:19.539 : en:00:17:19.539
00:34:22.561 : en:00:34:22.561
00:52:53.921 : en:00:52:53.921
01:15:14.593 : en:01:15:14.593
01:26:50.872 : en:01:26:50.872



_________________
Проголосуй за трекер Открытый торрент трекер - RUS-MEDIA.ORG

Проголосуй Открытый торрент трекер - RUS-MEDIA.ORG


Вернуться к началу
 Профиль Отправить личное сообщение  
 
   Похожие торренты   Автор   Торрент   Размер 
В этой теме нет новых непрочитанных сообщений. Графиня из Гонконга / A Countess From Hong Kong [мелодрама, комедия, 1967] BDRip, Mvo

salma3

66 | 22

1.45 ГБ

В этой теме нет новых непрочитанных сообщений. Графиня из Гонконга / A Countess from Hong Kong [мелодрама, комедия, 1967] BDRemux 1080p, Mvo

salma3

26 | 10

20.72 ГБ

В этой теме нет новых непрочитанных сообщений. В Гонконге уже завтра / Already Tomorrow in Hong Kong [Мелодрама, комедия, 2015] BDRip, Dvo

salma3

295 | 134

1.46 ГБ

В этой теме нет новых непрочитанных сообщений. В Гонконге уже завтра / Already Tomorrow in Hong Kong [мелодрама, комедия, 2015] BDRemux 1080p, Dvo+Sub

salma3

4 | 17

17.66 ГБ

В этой теме нет новых непрочитанных сообщений. В Гонконге уже завтра / Already Tomorrow in Hong Kong [Мелодрама, комедия, 2015] BDRip 720p, Dvo

salma3

0 | 0

3.35 ГБ

В этой теме нет новых непрочитанных сообщений. В Гонконге уже завтра / Already Tomorrow in Hong Kong [мелодрама, комедия, 2015] WEBDLRip, Dvo

salma3

28 | 4

1.36 ГБ

В этой теме нет новых непрочитанных сообщений. Белая графиня / The White Countess [Мелодрама, драма, военный, история, 2005] WEB-DL 720p, Mvo

salma3

121 | 75

4.75 ГБ


Начать новую тему Ответить на тему  [ 1 сообщение ] 




Для Мосгорсуда, Роскомнадзора и рекламодателей:: mosgorsud-torrent[собачка]yandex.ru
cron