Торрент файл
скачать торрент магнет ссылка Добавлен: 21 ноя 2016, 11:46
Размер: 4.76 ГБ
Сидеров: 32
Личеров: 2
Статус: (salma3)
Автор

СообщениеДобавлено: 21 ноя 2016, 11:46 

Не в сети
Супермодератор
Аватара пользователя
Дата регистрации:
15 фев 2012, 16:44
Возраст: 29
Спасибо: 7377 / 2147
Сообщения: 75969
Год выхода: 1968
Жанр: комедия, семейный
Режиссер: Мелвилл Шэвелсон / Melville Shavelson

В ролях: Люсиль Болл /Lucille Ball/, Генри Фонда /Henry Fonda/,Ван Джонсон /Van Johnson/, Луиз Трой

О фильме:
Овдовевший адмирал береговой охраны встречает женщину своей мечты, недавно потерявшую мужа. Два уже немолодых человека полюбили друг друга и решили пожениться. Ведь любящие люди должны жить вместе, даже если у него десять детей, а у нее их восемь. И пока дети сражаются друг с другом за территорию, их родители проходят проверку на крепость чувств.



Страна: США
Продолжительность: 01:51:17.984
Перевод: Профессиональный (двухголосый, закадровый) НТВ+

Файл
Кодек: h.264
Качество: BDRip 720p Исходник Yours, Mine and Ours (1968) BD25 1080p AVC
Видео: 1280x696 (1.85:1), 23.976 fps, AVC, ~5458 Kbps, 0.256 bits/pixel
Звук:
Русский, 48.0 KHz, AC3, 2 ch, 160 Kbps
Английский, 48.0 KHz, AC3, 2 ch, 448 Kbps
(все двойное моно)
Субтитры: Английские, PGS
Общее
Уникальный идентификатор : 216538721142041535369750651859300099595 (0xA2E7D739354B29608B0BE875D015A60B)
Полное имя : D:FILMSTvoi_Moi_i_Nashi.1968.BDRip720p.mkv
Формат : Matroska
Версия формата : Version 4 / Version 2
Размер файла : 4,76 Гбайт
Продолжительность : 1 ч. 51 м.
Общий поток : 6126 Кбит/сек
Дата кодирования : UTC 2016-11-19 11:51:30
Программа кодирования : mkvmerge v9.5.0 ('Quiet Fire') 64bit
Библиотека кодирования : libebml v1.3.4 + libmatroska v1.4.5
Видео
Идентификатор : 1
Формат : AVC
Формат/Информация : Advanced Video Codec
Профиль формата : High@L4.1
Параметр CABAC формата : Да
Параметр ReFrames формата : 9 кадров
Идентификатор кодека : V_MPEG4/ISO/AVC
Продолжительность : 1 ч. 51 м.
Битрейт : 5458 Кбит/сек
Ширина : 1280 пикселей
Высота : 696 пикселей
Соотношение сторон : 1,85:1
Режим частоты кадров : Постоянный
Частота кадров : 23,976 (24000/1001) кадра/сек
Цветовое пространство : YUV
Субдискретизация насыщенности : 4:2:0
Битовая глубина : 8 бит
Тип развёртки : Прогрессивная
Бит/(Пиксели*Кадры) : 0.256
Размер потока : 4,24 Гбайт (89%)
Библиотека кодирования : x264 core 148 r2638 7599210
Настройки программы : cabac=1 / ref=9 / deblock=1:-3:-3 / analyse=0x3:0x133 / me=umh / subme=11 / psy=1 / psy_rd=1.10:0.15 / mixed_ref=1 / me_range=48 / chroma_me=1 / trellis=2 / 8x8dct=1 / cqm=0 / deadzone=21,11 / fast_pskip=0 / chroma_qp_offset=-3 / threads=8 / lookahead_threads=2 / sliced_threads=0 / nr=0 / decimate=0 / interlaced=0 / bluray_compat=0 / constrained_intra=0 / bframes=10 / b_pyramid=2 / b_adapt=2 / b_bias=0 / direct=3 / weightb=1 / open_gop=0 / weightp=2 / keyint=240 / keyint_min=23 / scenecut=40 / intra_refresh=0 / rc_lookahead=60 / rc=2pass / mbtree=0 / bitrate=5458 / ratetol=1.0 / qcomp=0.60 / qpmin=0 / qpmax=69 / qpstep=4 / cplxblur=20.0 / qblur=0.5 / vbv_maxrate=40000 / vbv_bufsize=50000 / nal_hrd=none / filler=0 / ip_ratio=1.40 / pb_ratio=1.30 / aq=1:1.00
Default : Нет
Forced : Нет
Цветовой диапазон : Limited
Основные цвета : BT.709
Характеристики трансфера : BT.709
Коэффициенты матрицы : BT.709
Аудио #1
Идентификатор : 2
Формат : AC-3
Формат/Информация : Audio Coding 3
Расширение режима : CM (complete main)
Параметр Endianness формата : Big
Идентификатор кодека : A_AC3
Продолжительность : 1 ч. 51 м.
Вид битрейта : Постоянный
Битрейт : 160 Кбит/сек
Каналы : 2 канала
Расположение каналов : Front: L R
Частота : 48,0 КГц
Частота кадров : 31,250 кадров/сек (1536 spf)
Метод сжатия : С потерями
Размер потока : 127 Мбайт (3%)
Язык : Russian
Default : Да
Forced : Нет
Аудио #2
Идентификатор : 3
Формат : AC-3
Формат/Информация : Audio Coding 3
Расширение режима : CM (complete main)
Параметр Endianness формата : Big
Идентификатор кодека : A_AC3
Продолжительность : 1 ч. 51 м.
Вид битрейта : Постоянный
Битрейт : 448 Кбит/сек
Каналы : 2 канала
Расположение каналов : Front: L R
Частота : 48,0 КГц
Частота кадров : 31,250 кадров/сек (1536 spf)
Метод сжатия : С потерями
Размер потока : 357 Мбайт (7%)
Язык : English
Default : Нет
Forced : Нет
Текст
Идентификатор : 4
Формат : PGS
Режим смешивания : zlib
Идентификатор кодека : S_HDMV/PGS
Идентификатор кодека/Информация : Picture based subtitle format used on BDs/HD-DVDs
Продолжительность : 1 ч. 46 м.
Битрейт : 61,2 Кбит/сек
Count of elements : 1932
Размер потока : 46,5 Мбайт (1%)
Язык : English
Default : Нет
Forced : Нет


Релиз от: Temperest


_________________
Проголосуй за трекер Открытый торрент трекер - RUS-MEDIA.ORG

Проголосуй Открытый торрент трекер - RUS-MEDIA.ORG


Вернуться к началу
 Профиль Отправить личное сообщение  
 
   Похожие торренты   Автор   Торрент   Размер 
В этой теме нет новых непрочитанных сообщений. Твои, мои и наши / Yours, Mine and Ours [комедия, семейный, 1968] HDRip, Mvo

salma3

28 | 10

1.45 ГБ

В этой теме нет новых непрочитанных сообщений. Твои, мои и наши / Yours, Mine & Ours [комедия, мелодрама, семейный, 2005] WEBDL 720p, Dvo

salma3

30 | 2

3.13 ГБ

В этой теме нет новых непрочитанных сообщений. Маленький купальщик / Le Petit baigneur [комедия, 1968] BDRip 720p, Dub

salma3

56 | 7

5.06 ГБ

В этой теме нет новых непрочитанных сообщений. Мина / Mine [триллер, 2016] BDRip 720p, Mvo [AlexFilm]

salma3

919 | 360

4.36 ГБ

В этой теме нет новых непрочитанных сообщений. Жандарм женится / Le gendarme se marie [комедия, 1968] BDRip 720p, 5Mvo+Avo+Sub

salma3

0 | 1

4.36 ГБ

В этой теме нет новых непрочитанных сообщений. Любовь холоднее смерти / Liebe ist kälter als der Tod [комедия, криминал, 1968] BDRip 720p, Mvo

salma3

28 | 20

6.36 ГБ

В этой теме нет новых непрочитанных сообщений. Враг мой / Enemy Mine [Фантастика, боевик, драма, 1985] BDRip 720p, Dub

salma3

0 | 1

7.07 ГБ


Начать новую тему Ответить на тему  [ 1 сообщение ] 




Для Мосгорсуда, Роскомнадзора и рекламодателей:: mosgorsud-torrent[собачка]yandex.ru
cron