Торрент файл
скачать торрент магнет ссылка Добавлен: 21 ноя 2016, 11:16
Размер: 6.19 ГБ
Сидеров: 32
Личеров: 7
Статус: (salma3)
Автор

СообщениеДобавлено: 21 ноя 2016, 11:16 

Не в сети
Супермодератор
Аватара пользователя
Дата регистрации:
15 фев 2012, 16:44
Возраст: 28
Спасибо: 6640 / 2146
Сообщения: 45613
Страна: США
Жанр: ужасы, триллер, криминал, детектив
Год выпуска: 1993
Продолжительность: 01:43:40
Перевод: 2 x Авторский
Субтитры: английские.


Режиссер: Джеймс Гликенхаус / James Glickenhaus


В ролях: Скотт Гленн, Джесси Кэмерон-Гликенхаус, Шила Тауси, Зитто Казанн , Дарлэнн Флюгел, Армин Шимермэн, Зэйкс Мокэй, Хенри Браун, Кевин Сорбо

Описание: Маньяка-убийцу, который расправляется с маленькими детьми, возомнив себя словно Ноем, обязанным взять в свой ковчег «каждой твари по паре», ищет не только агент ФБР, но и его отпрыск-вундеркинд, довольно рано увлёкшийся расследованием запутанных дел.



Качество: BDRip
Контейнер: MKV
Видео: AVC, 1280x720 (16:9), 7806 kbps, 23,976 fps, 0,353 bpp
Аудио №1: русский / AC3 / 2.0 / 48 kHz / 192 kbps / AVO ( Гаврилов )
Аудио №2: русский / AC3 / 2.0 / 48 kHz / 192 kbps / AVO ( Володарский )
Аудио №3: английский / AC3 / 2.0 / 48 kHz / 192 kbps
Навигация по главам: есть


Семпл

************************************************************
x264 [info]: frame I:852 Avg QP:16.94 size:112709
x264 [info]: frame P:28224 Avg QP:18.04 size: 66985
x264 [info]: frame B:120046 Avg QP:20.05 size: 35097
************************************************************
Формат : Matroska
Версия формата : Version 2
Размер файла : 6,19 Гбайт
Продолжительность : 1 ч. 43 м.
Общий поток : 8553 Кбит/сек
Название фильма : = Избиение младенцев / Slaughter Of The Innocents (1993) BDRip 720p by SC Kosmos =
Дата кодирования : UTC 2016-11-15 21:41:12
Программа кодирования : mkvmerge v5.8.0 ('No Sleep / Pillow') built on Sep 2 2012 15:37:04
Библиотека кодирования : libebml v1.2.3 + libmatroska v1.3.0
Attachment : Yes
Видео
Идентификатор : 1
Формат : AVC
Формат/Информация : Advanced Video Codec
Профиль формата : High@L4.1
Параметр CABAC формата : Да
Параметр ReFrames формата : 8 кадров
Идентификатор кодека : V_MPEG4/ISO/AVC
Продолжительность : 1 ч. 43 м.
Битрейт : 7806 Кбит/сек
Ширина : 1280 пикселей
Высота : 720 пикселей
Соотношение сторон : 16:9
Режим частоты кадров : Постоянный
Частота кадров : 23,976 кадра/сек
Цветовое пространство : YUV
Субдискретизация насыщенности : 4:2:0
Битовая глубина : 8 бит
Тип развёртки : Прогрессивная
Бит/(Пиксели*Кадры) : 0.353
Размер потока : 5,65 Гбайт (91%)
Заголовок : Избиение младенцев / Slaughter Of The Innocents (1993) BDRip 720p by SC Kosmos
Библиотека кодирования : x264 core 148 r2721kMod 72d53ab
Настройки программы : cabac=1 / ref=8 / deblock=1:-3:-3 / analyse=0x3:0x113 / me=umh / subme=11 / psy=1 / fade_compensate=0.00 / psy_rd=1.00:0.05 / mixed_ref=1 / me_range=32 / chroma_me=1 / trellis=2 / 8x8dct=1 / cqm=0 / deadzone=21,11 / fast_pskip=0 / chroma_qp_offset=-3 / threads=12 / lookahead_threads=3 / sliced_threads=0 / nr=0 / decimate=1 / interlaced=0 / bluray_compat=0 / constrained_intra=0 / fgo=0 / bframes=14 / b_pyramid=2 / b_adapt=2 / b_bias=0 / direct=3 / weightb=1 / open_gop=0 / weightp=2 / keyint=240 / keyint_min=23 / scenecut=40 / intra_refresh=0 / rc_lookahead=40 / rc=crf / mbtree=0 / crf=18.0000 / qcomp=0.60 / qpmin=0 / qpmax=69 / qpstep=4 / vbv_maxrate=62500 / vbv_bufsize=78125 / crf_max=0.0 / nal_hrd=none / filler=0 / ip_ratio=1.40 / pb_ratio=1.30 / aq=1:1.00
Язык : English
Default : Да
Forced : Нет
Аудио #1
Идентификатор : 2
Формат : AC-3
Формат/Информация : Audio Coding 3
Расширение режима : CM (complete main)
Параметр Endianness формата : Big
Идентификатор кодека : A_AC3
Продолжительность : 1 ч. 43 м.
Вид битрейта : Постоянный
Битрейт : 192 Кбит/сек
Каналы : 2 канала
Расположение каналов : Front: L R
Частота : 48,0 КГц
Битовая глубина : 16 бит
Метод сжатия : С потерями
Размер потока : 142 Мбайт (2%)
Заголовок : AVO ( Гаврилов )
Язык : Russian
Default : Да
Forced : Нет
Аудио #2
Идентификатор : 3
Формат : AC-3
Формат/Информация : Audio Coding 3
Расширение режима : CM (complete main)
Параметр Endianness формата : Big
Идентификатор кодека : A_AC3
Продолжительность : 1 ч. 43 м.
Вид битрейта : Постоянный
Битрейт : 192 Кбит/сек
Каналы : 2 канала
Расположение каналов : Front: L R
Частота : 48,0 КГц
Битовая глубина : 16 бит
Метод сжатия : С потерями
Размер потока : 142 Мбайт (2%)
Заголовок : AVO ( Володарский )
Язык : Russian
Default : Нет
Forced : Нет
Аудио #3
Идентификатор : 4
Формат : AC-3
Формат/Информация : Audio Coding 3
Расширение режима : CM (complete main)
Параметр Endianness формата : Big
Идентификатор кодека : A_AC3
Продолжительность : 1 ч. 43 м.
Вид битрейта : Постоянный
Битрейт : 192 Кбит/сек
Каналы : 2 канала
Расположение каналов : Front: L R
Частота : 48,0 КГц
Битовая глубина : 16 бит
Метод сжатия : С потерями
Размер потока : 142 Мбайт (2%)
Язык : English
Default : Нет
Forced : Нет
Текст
Идентификатор : 5
Формат : UTF-8
Идентификатор кодека : S_TEXT/UTF8
Идентификатор кодека/Информация : UTF-8 Plain Text
Язык : English
Default : Да
Forced : Нет
Меню
00:00:00.000 : en:00:00:00.000
00:03:08.563 : en:00:03:08.563
00:11:03.997 : en:00:11:03.997
00:20:19.927 : en:00:20:19.927
00:25:27.818 : en:00:25:27.818
00:34:09.798 : en:00:34:09.798
00:41:20.853 : en:00:41:20.853
00:54:33.437 : en:00:54:33.437
01:05:14.452 : en:01:05:14.452
01:11:07.221 : en:01:11:07.221
01:22:41.039 : en:01:22:41.039
01:36:04.008 : en:01:36:04.008




_________________
Проголосуй за трекер Открытый торрент трекер - RUS-MEDIA.ORG

Проголосуй Открытый торрент трекер - RUS-MEDIA.ORG



реклама партнёра


Вернуться к началу
 Профиль Отправить личное сообщение  
 
   Похожие торренты   Автор   Торрент   Размер 
В этой теме нет новых непрочитанных сообщений. Готова на всё / Malice [триллер, криминал, детектив, 1993] BDRip 720p, 3Dvo+Avo+Sub

salma3

71 | 10

4.27 ГБ

В этой теме нет новых непрочитанных сообщений. Джесси Стоун: Гибель невинных / Jesse Stone: Innocents Lost [драма, криминал, детектив, 2011] WEB-DL 720p, Avo+Sub

salma3

121 | 15

3.09 ГБ

В этой теме нет новых непрочитанных сообщений. На линии огня / In the Line of Fire [боевик, триллер, драма, криминал, детектив, 1993] BDRip 720p, Dub

salma3

47 | 10

7.75 ГБ

В этой теме нет новых непрочитанных сообщений. Резня в школе / Slaughter High [ужасы, триллер, 1986] BDRip 1080p, Dvo

salma3

3 | 0

8.86 ГБ

В этой теме нет новых непрочитанных сообщений. Похитители тел / Body Snatchers [ужасы, фантастика, триллер, детектив, 1993] WEB-DL 720p, Mvo

salma3

6 | 1

3.18 ГБ

В этой теме нет новых непрочитанных сообщений. Готова на всё / Malice [Триллер, криминал, детектив, 1993] BDRip 1080p, 5Dvo+Avo+Sub

salma3

90 | 23

7.71 ГБ

В этой теме нет новых непрочитанных сообщений. Дело о пеликанах / The Pelican Brief [Триллер, детектив, драма, 1993] BDRip 720p, Dub

salma3

35 | 5

4.37 ГБ


Начать новую тему Ответить на тему  [ 1 сообщение ] 




Для Мосгорсуда, Роскомнадзора и рекламодателей:: mosgorsud-torrent[собачка]yandex.ru