Торрент файл
скачать торрент магнет ссылка Добавлен: 17 ноя 2016, 13:12
Размер: 14.04 ГБ
Сидеров: 9
Личеров: 3
Статус: (salma3)
Автор

СообщениеДобавлено: 17 ноя 2016, 13:12 

Не в сети
Супермодератор
Аватара пользователя
Дата регистрации:
15 фев 2012, 16:44
Возраст: 28
Спасибо: 6659 / 2146
Сообщения: 46020
Год выпуска: 1969
Страна: США
Жанр: приключения, вестерн, военный
Продолжительность: 01:49:32
Перевод: профессиональный многоголосый, профессиональный двухголосый, авторский
Режиссёр: Том Гриз

В ролях: Джим Браун, Ракель Уэлч, Бёрт Рейнолдс, Фернандо Ламас, Дэн О`Херлихи, Ханс Гудегаст, Майкл Форест, Альдо Самбрелл, Соледад Миранда

Описание: Сто винтовок нужны повстанцам, чтобы выступить против угнетателей. Ради этой благой цели грабитель-полукровка Яки Джо крадёт из банка 6 000 долларов. Но едва он возвращается в родную мексиканскую деревушку, как объявляется Лайдрекер, суровый блюститель закона из Аризоны, который не собирается возвращаться домой с пустыми руками...



Качество: BDRip 1080p
Формат: MKV
Видео: MPEG-4 AVC, 16.3 Mбит/с, 1920x1040, 23,976 кадра/с
Аудио 1: русский, AC3, 192 kbps, 2 ch, 48 kHz [профессиональный многоголосый, Спб, 5 канал]
Аудио 2: русский, AC3, 192 kbps, 2 ch, 48 kHz [профессиональный двухголосый]
Аудио 3: русский, AC3, 192 kbps, 2 ch, 48 kHz [авторский, Сергей Кузнецов]
Аудио 4: английский, DTS, 1509 kbps, 2 ch, 48 kHz [оригинал]
Общее
Уникальный идентификатор : 239961982801232759816112435615729877599 (0xB486FF2F8A12CE57AB8BDCDCB2CE825F)
Полное имя : D:Video100 винтовок.1969.BDRip.1080p by msltel.mkv
Формат : Matroska
Версия формата : Version 4 / Version 2
Размер файла : 14,0 Гбайт
Продолжительность : 1 ч. 49 м.
Общий поток : 18,3 Мбит/сек
Название фильма : Rip by msltel
Дата кодирования : UTC 2016-11-16 04:22:16
Программа кодирования : mkvmerge v8.2.0 ('World of Adventure') 64bit
Библиотека кодирования : libebml v1.3.1 + libmatroska v1.4.2
Видео
Идентификатор : 1
Формат : AVC
Формат/Информация : Advanced Video Codec
Профиль формата : High@L4.1
Параметр CABAC формата : Да
Параметр ReFrames формата : 4 кадра
Идентификатор кодека : V_MPEG4/ISO/AVC
Продолжительность : 1 ч. 49 м.
Битрейт : 16,3 Мбит/сек
Ширина : 1920 пикселей
Высота : 1040 пикселей
Соотношение сторон : 1,85:1
Режим частоты кадров : Постоянный
Частота кадров : 23,976 (24000/1001) кадра/сек
Цветовое пространство : YUV
Субдискретизация насыщенности : 4:2:0
Битовая глубина : 8 бит
Тип развёртки : Прогрессивная
Бит/(Пиксели*Кадры) : 0.340
Размер потока : 12,4 Гбайт (89%)
Библиотека кодирования : x264 core 146 r2538 121396c
Настройки программы : cabac=1 / ref=4 / deblock=1:-3:-3 / analyse=0x3:0x113 / me=umh / subme=9 / psy=1 / psy_rd=1.00:0.15 / mixed_ref=1 / me_range=32 / chroma_me=1 / trellis=1 / 8x8dct=1 / cqm=0 / deadzone=21,11 / fast_pskip=0 / chroma_qp_offset=-3 / threads=6 / lookahead_threads=1 / sliced_threads=0 / nr=0 / decimate=1 / interlaced=0 / bluray_compat=0 / constrained_intra=0 / bframes=6 / b_pyramid=2 / b_adapt=2 / b_bias=0 / direct=1 / weightb=1 / open_gop=0 / weightp=2 / keyint=230 / keyint_min=23 / scenecut=40 / intra_refresh=0 / rc_lookahead=40 / rc=crf / mbtree=0 / crf=18.4 / qcomp=0.60 / qpmin=0 / qpmax=69 / qpstep=4 / vbv_maxrate=50000 / vbv_bufsize=62500 / crf_max=0.0 / nal_hrd=none / filler=0 / ip_ratio=1.40 / pb_ratio=1.30 / aq=1:1.00
Язык : English
Default : Да
Forced : Нет
Аудио #1
Идентификатор : 2
Формат : AC-3
Формат/Информация : Audio Coding 3
Расширение режима : CM (complete main)
Параметр Endianness формата : Big
Идентификатор кодека : A_AC3
Продолжительность : 1 ч. 49 м.
Вид битрейта : Постоянный
Битрейт : 192 Кбит/сек
Каналы : 2 канала
Расположение каналов : Front: L R
Частота : 48,0 КГц
Частота кадров : 31,250 кадров/сек (1536 spf)
Метод сжатия : С потерями
Размер потока : 150 Мбайт (1%)
Заголовок : MVO (Спб, 5 канал)
Язык : Russian
Default : Да
Forced : Нет
Аудио #2
Идентификатор : 3
Формат : AC-3
Формат/Информация : Audio Coding 3
Расширение режима : CM (complete main)
Параметр Endianness формата : Big
Идентификатор кодека : A_AC3
Продолжительность : 1 ч. 49 м.
Вид битрейта : Постоянный
Битрейт : 192 Кбит/сек
Каналы : 2 канала
Расположение каналов : Front: L R
Частота : 48,0 КГц
Частота кадров : 31,250 кадров/сек (1536 spf)
Метод сжатия : С потерями
Размер потока : 150 Мбайт (1%)
Заголовок : DVO
Язык : Russian
Default : Нет
Forced : Нет
Аудио #3
Идентификатор : 4
Формат : AC-3
Формат/Информация : Audio Coding 3
Расширение режима : CM (complete main)
Параметр Endianness формата : Big
Идентификатор кодека : A_AC3
Продолжительность : 1 ч. 49 м.
Вид битрейта : Постоянный
Битрейт : 192 Кбит/сек
Каналы : 2 канала
Расположение каналов : Front: L R
Частота : 48,0 КГц
Частота кадров : 31,250 кадров/сек (1536 spf)
Метод сжатия : С потерями
Размер потока : 150 Мбайт (1%)
Заголовок : AVO (Сергей Кузнецов)
Язык : Russian
Default : Нет
Forced : Нет
Аудио #4
Идентификатор : 5
Формат : DTS
Формат/Информация : Digital Theater Systems
Режим : 16
Параметр Endianness формата : Big
Идентификатор кодека : A_DTS
Продолжительность : 1 ч. 49 м.
Вид битрейта : Постоянный
Битрейт : 1509 Кбит/сек
Каналы : 2 канала
Расположение каналов : Front: L R
Частота : 48,0 КГц
Частота кадров : 93,750 кадра/сек (512 spf)
Битовая глубина : 24 бит
Метод сжатия : С потерями
Размер потока : 1,15 Гбайт (8%)
Заголовок : original
Язык : English
Default : Нет
Forced : Нет
Меню
00:00:00.000 : :Chapter 01
00:08:14.660 : :Chapter 02
00:14:46.719 : :Chapter 03
00:25:19.351 : :Chapter 04
00:35:09.107 : :Chapter 05
00:47:35.893 : :Chapter 06
00:55:58.730 : :Chapter 07
01:03:58.835 : :Chapter 08
01:16:43.515 : :Chapter 09
01:21:56.536 : :Chapter 10
01:30:48.526 : :Chapter 11
01:43:18.066 : :Chapter 12


_________________
Проголосуй за трекер Открытый торрент трекер - RUS-MEDIA.ORG

Проголосуй Открытый торрент трекер - RUS-MEDIA.ORG



реклама партнёра


Вернуться к началу
 Профиль Отправить личное сообщение  
 
   Похожие торренты   Автор   Торрент   Размер 
В этой теме нет новых непрочитанных сообщений. Сто винтовок / 100 Rifles [приключения, вестерн, военный, 1969] BDRip, Mvo+Dvo

salma3

85 | 29

1.45 ГБ

В этой теме нет новых непрочитанных сообщений. Сто винтовок / 100 Rifles [приключения, вестерн, военный, 1969] BDRip 720p, Mvo

salma3

61 | 20

5.34 ГБ

В этой теме нет новых непрочитанных сообщений. Сто винтовок / 100 Rifles [Боевик, вестерн, приключения, 1969] DVDRip, Avo

salma3

1 | 0

1.45 ГБ

В этой теме нет новых непрочитанных сообщений. Золото Маккенны / Mackenna's Gold [мелодрама, вестерн, приключения, 1969] BDRip 1080p, Dub

salma3

66 | 21

11.59 ГБ

В этой теме нет новых непрочитанных сообщений. Маленький большой человек / Little Big Man [драма, приключения, вестерн, военный, история, 1970] BDRip 1080p, Mvo+Avo+Sub

salma3

17 | 1

7.01 ГБ

В этой теме нет новых непрочитанных сообщений. Золото Маккенны / Mackenna's Gold [Вестерн, приключения, 1969] BDRip-AVC, Dub

salma3

28 | 0

2.18 ГБ

В этой теме нет новых непрочитанных сообщений. Поддержите своего шерифа / Support Your Local Sheriff! [Комедия, вестерн, приключения, 1969] BDRemux 1080p, Mvo+Sub

salma3

0 | 0

19.14 ГБ


Начать новую тему Ответить на тему  [ 1 сообщение ] 




Для Мосгорсуда, Роскомнадзора и рекламодателей:: mosgorsud-torrent[собачка]yandex.ru