Торрент файл
скачать торрент магнет ссылка Добавлен: 14 ноя 2016, 20:07
Размер: 24.65 ГБ
Сидеров: 7
Личеров: 0
Автор

СообщениеДобавлено: 14 ноя 2016, 20:08 

Не в сети
Аватара пользователя
Дата регистрации:
09 авг 2014, 12:07
Спасибо: 61 / 1
Сообщения: 220
Откуда: КРАСНОГОРСК
Механик: Воскрешение / Mechanic: Resurrection


Год выпуска: 2016
Выпущено:Франция, США, Chartoff-Winkler Productions, Davis-Films, ME2 Productions, Millennium Films
Жанр: Боевик, триллер, криминал
Продолжительность: 01:38:39

Озвучка 1: Дублированный (iTunes)-Русский

Озвучка 2: Профессиональный многоголосый -Английский -Оригинал

Субтитры: English , English (SDH)

IMDB

Режиссер:
Дэннис Ганзельс

В ролях: Джейсон Стэйтем, Джессика Альба, Томми Ли Джонс, Мишель Йео, Наталия Гуслистая, Ейяинг Рхатха Пхонгам, Сэм Хэзелдайн, Джон Ченатьемпо, Райчо Василев, Аарон Брамфилд


[color=Blue][b]Артура Бишопа, давно оставившего свое криминальное ремесло, вынуждают снова вступить в игру. Чтобы похитители вернули его возлюбленную, он должен сделать то, что у него получается лучше всего: от него требуется совершить три убийства, идеально обставленных как несчастные случаи.





Качество :Blu-Ray Remux 1080p
Формат: MKV
Видео кодек: H264
Видео: 33,9Мбит/сек,1920х1080(16.9),в 23.976кадр/сек,AVC(High@L4,1)(CABAC/4 Ref Frames)
Аудио Кодек:AC3

Аудио #1:AC3 , 640 Kbps, 48.0 KHz, 6 ch- -Дублированный (iTunes)-Русский


Аудио #2: AC3, 640 Kbps, 48.0 KHz,6 ch - - English-Английский -Оригинал


Общее
Уникальный идентификатор : 170967120136608476022354606603962728401 (0x809F11D276C2DF29A48B7E1BCC4CBFD1)
Полное имя : C:\МОЙ ДОСУГ\МЕХАНИК ВОСКРЕШЕНИЕ\MECHANIC_RESURRECTION_2016_RUS[DUB_iTunes]_DD5.1_N.B_Blu-Ray_Remux_1080p_Rus_Eng\MECHANIC_RESURRECTION_2016_RUS[DUB_iTunes]_DD5.1_N.B_Blu-Ray_Remux_1080p_Rus_Eng.mkv
Формат : Matroska
Версия формата : Version 4 / Version 2
Размер файла : 24,3 Гбайт
Продолжительность : 1 ч. 38 м.
Режим общего битрейта : Переменный
Общий поток : 35,2 Мбит/сек
Название фильма : MECHANIC_RESURRECTION_2016_RUS[DUB_iTunes]_DD5.1_N.B_Blu-Ray_Remux_1080p_Rus_Eng
Дата кодирования : UTC 2016-11-12 22:32:16
Программа кодирования : mkvmerge v9.5.0 ('Quiet Fire') 64bit
Библиотека кодирования : libebml v1.3.4 + libmatroska v1.4.5

Видео
Идентификатор : 1
Формат : AVC
Формат/Информация : Advanced Video Codec
Профиль формата : High@L4.1
Параметр CABAC формата : Да
Параметр ReFrames формата : 4 кадра
Идентификатор кодека : V_MPEG4/ISO/AVC
Продолжительность : 1 ч. 38 м.
Вид битрейта : Переменный
Битрейт : 33,9 Мбит/сек
Максимальный битрейт : 36,0 Мбит/сек
Ширина : 1920 пикселей
Высота : 1080 пикселей
Соотношение сторон : 16:9
Режим частоты кадров : Постоянный
Частота кадров : 23,976 (24000/1001) кадра/сек
Цветовое пространство : YUV
Субдискретизация насыщенности : 4:2:0
Битовая глубина : 8 бит
Тип развёртки : Прогрессивная
Бит/(Пиксели*Кадры) : 0.682
Размер потока : 23,4 Гбайт (96%)
Заголовок : MECHANIC_RESURRECTION_2016_RUS[DUB_iTunes]_DD5.1_N.B_Blu-Ray_Remux_1080p_Rus_Eng
Язык : English
Default : Да
Forced : Нет

Аудио #1
Идентификатор : 4
Формат : AC-3
Формат/Информация : Audio Coding 3
Расширение режима : CM (complete main)
Параметр Endianness формата : Big
Идентификатор кодека : A_AC3
Продолжительность : 1 ч. 38 м.
Вид битрейта : Постоянный
Битрейт : 640 Кбит/сек
Каналы : 6 каналов
Расположение каналов : Front: L C R, Side: L R, LFE
Частота : 48,0 КГц
Частота кадров : 31,250 кадров/сек (1536 spf)
Битовая глубина : 16 бит
Метод сжатия : С потерями
Размер потока : 451 Мбайт (2%)
Заголовок : Russian DUB iTunes@DD5.1 AC3 ,640 Kbps, 48.0 KHz, 6 ch KHz, 6 ch
Язык : Russian
Default : Да
Forced : Нет

Аудио #2
Идентификатор : 5
Формат : AC-3
Формат/Информация : Audio Coding 3
Расширение режима : CM (complete main)
Параметр Endianness формата : Big
Идентификатор кодека : A_AC3
Продолжительность : 1 ч. 38 м.
Вид битрейта : Постоянный
Битрейт : 640 Кбит/сек
Каналы : 6 каналов
Расположение каналов : Front: L C R, Side: L R, LFE
Частота : 48,0 КГц
Частота кадров : 31,250 кадров/сек (1536 spf)
Битовая глубина : 16 бит
Метод сжатия : С потерями
Размер потока : 452 Мбайт (2%)
Заголовок : Original@DD5.1 AC3 ,640 Kbps, 48.0 KHz, 6 ch
Язык : English
Default : Нет
Forced : Нет

Текст #1
Идентификатор : 2
Формат : UTF-8
Идентификатор кодека : S_TEXT/UTF8
Идентификатор кодека/Информация : UTF-8 Plain Text
Продолжительность : 1 ч. 30 м.
Битрейт : 28 бит/сек
Count of elements : 630
Размер потока : 19,1 Кбайт (0%)
Заголовок : Original
Язык : English
Default : Да
Forced : Нет

Текст #2
Идентификатор : 3
Формат : UTF-8
Идентификатор кодека : S_TEXT/UTF8
Идентификатор кодека/Информация : UTF-8 Plain Text
Продолжительность : 1 ч. 33 м.
Битрейт : 34 бит/сек
Count of elements : 847
Размер потока : 23,8 Кбайт (0%)
Заголовок : Original SDH
Язык : English
Default : Нет
Forced : Нет













Релиз от: Nikolai.Baranov & PIRATIYA







_________________

Легко быть оптимистом, когда судьба не валит с ног тяжелыми ударами, а лишь иногда легонько шлепает по заднице.



реклама партнёра


Вернуться к началу
 Профиль Отправить личное сообщение  
 
   Похожие торренты   Автор   Торрент   Размер 
В этой теме нет новых непрочитанных сообщений. Механик Воскрешение / Mechanic Resurrection [боевик, триллер, криминал, 2016] Blu-ray 1080p, Dub

salma3

27 | 26

18.8 ГБ

В этой теме нет новых непрочитанных сообщений. Механик: Воскрешение / Mechanic: Resurrection (Боевик, триллер, криминал, 2016) BDRip 1080p | 60 FPS | iTunes

marya111

312 | 59

10.88 ГБ

В этой теме нет новых непрочитанных сообщений. Механик: Воскрешение / Mechanic: Resurrection [боевик, триллер, криминал, 2016] BDRip 1080p, Dub+Mvo+Avo+Sub [Лицензия]

salma3

397 | 68

7.74 ГБ

В этой теме нет новых непрочитанных сообщений. Механик: Воскрешение / Mechanic: Resurrection [Боевик, триллер, криминал, 2016] WEBRip, Mvo [КПК ]

marya111

463 | 20

335.13 МБ

В этой теме нет новых непрочитанных сообщений. Механик: Воскрешение / Mechanic: Resurrection [боевик, триллер, криминал, 2016] BDRip, Dub+Sub [Лицензия]

salma3

472 | 162

1.46 ГБ

В этой теме нет новых непрочитанных сообщений. Механик: Воскрешение / Mechanic: Resurrection [Боевик, триллер, криминал, 2016] BDRip, Mvo [FocusStudio]

salma3

276 | 44

1.45 ГБ

В этой теме нет новых непрочитанных сообщений. Механик: Воскрешение / Mechanic: Resurrection [боевик, триллер, криминал, 2016] HDRip, Dub+Sub [Лицензия]

salma3

227 | 54

746.68 МБ


Начать новую тему Ответить на тему  [ 1 сообщение ] 




Для Мосгорсуда, Роскомнадзора и рекламодателей:: mosgorsud-torrent[собачка]yandex.ru