Торрент файл
скачать торрент магнет ссылка Добавлен: 13 ноя 2016, 14:25
Размер: 15.95 ГБ
Сидеров: 2
Личеров: 0
Статус: (salma3)
Автор

СообщениеДобавлено: 13 ноя 2016, 14:25 

Не в сети
Супермодератор
Аватара пользователя
Дата регистрации:
15 фев 2012, 16:44
Возраст: 28
Спасибо: 6640 / 2146
Сообщения: 45613
Страна: США
Жанр: драма
Год выпуска: 1988
Продолжительность: 02:13:50
Перевод: Профессиональный (полное дублирование), 7 x Профессиональный (многоголосый, закадровый), Профессиональный (двухголосый, закадровый), 6 x Авторский.
Субтитры: русские (Forced + 4 вида), английские.
Режиссер: Барри Левинсон / Barry Levinson

В ролях: Дастин Хоффман (Raymond Babbitt), Том Круз (Charlie Babbitt), Валерия Голино (Susanna), Джералд Р. Молен (Dr. Bruner), Джек Мёрдок (John Mooney), Майкл Д. Робертс (Vern), Ральф Сеймур (Lenny), Люсинда Дженни (Iris), Бонни Хант (Sally Dibbs), Ким Робиллард (Small Town Doctor), Бет Грант (Mother at Farm House), Долан Догерти (Farm House Kid)



Описание: У Чарли, грубоватого и эгоистичного молодого повесы, в наследство от отца остались лишь розовые кусты да «Бьюик» 49-го года. Внезапным «сюрпризом» для него стало открытие того, что львиная доля наследства оставлена отцом его больному аутизмом брату Раймонду.





Семпл


Качество: BDRip
Контейнер: MKV
Видео: AVC, 1280x692 (1.85:1), 10258 kbps, 23,976 fps, 0,483 bpp
Аудио №1: русский / AC3 / 2.0 / 48 kHz / 192 kbps / Дубляж
Аудио №2: русский / AC3 / 5.1 / 48 kHz / 640 kbps / MVO ( BluRay )
Аудио №3: русский / AC3 / 2.0 / 48 kHz / 192 kbps / MVO ( Lazer Video )
Аудио №4: русский / AC3 / 2.0 / 48 kHz / 192 kbps / MVO ( OPT )
Аудио №5: русский / AC3 / 5.1 / 48 kHz / 640 kbps / MVO ( Позитив-Мультимедиа )
Аудио №6: русский / AC3 / 5.1 / 48 kHz / 640 kbps / MVO ( Superbit )
Аудио №7: русский / AC3 / 2.0 / 48 kHz / 192 kbps / MVO ( HTB 2000 ых )
Аудио №8: русский / AC3 / 2.0 / 48 kHz / 192 kbps / MVO ( HTB 90-ых )
Аудио №9: русский / AC3 / 2.0 / 48 kHz / 192 kbps / DVO ( А.В.Клюквин (Союз, Soventure) )
Аудио №10: русский / AC3 / 2.0 / 48 kHz / 192 kbps / AVO ( Гаврилов )
Аудио №11: русский / AC3 / 5.1 / 48 kHz / 640 kbps / AVO ( Горчаков )
Аудио №12: русский / AC3 / 5.1 / 48 kHz / 640 kbps / AVO ( Михалёв )
Аудио №13: русский / AC3 / 5.1 / 48 kHz / 640 kbps / AVO ( Живов )
Аудио №14: русский / AC3 / 5.1 / 48 kHz / 448 kbps / AVO ( Сербин )
Аудио №15: русский / AC3 / 2.0 / 48 kHz / 192 kbps / AVO ( Володарский )
Аудио №16: английский / AC3 / 5.1 / 48 kHz / 640 kbps
Навигация по главам: есть


********************************************************************
x264 [info]: frame I:1119 Avg QP:16.34 size:127119
x264 [info]: frame P:34052 Avg QP:17.42 size: 78328
x264 [info]: frame B:157361 Avg QP:19.62 size: 49701
********************************************************************
Формат : Matroska
Версия формата : Version 2
Размер файла : 16,0 Гбайт
Продолжительность : 2 ч. 13 м.
Общий поток : 17,1 Мбит/сек
Название фильма : = Человек дождя / Rain Man (1988) BDRip 720p by SC Kosmos =
Дата кодирования : UTC 2016-11-09 16:26:00
Программа кодирования : mkvmerge v5.8.0 ('No Sleep / Pillow') built on Sep 2 2012 15:37:04
Библиотека кодирования : libebml v1.2.3 + libmatroska v1.3.0
Attachment : Yes
Видео
Идентификатор : 1
Формат : AVC
Формат/Информация : Advanced Video Codec
Профиль формата : High@L4.1
Параметр CABAC формата : Да
Параметр ReFrames формата : 9 кадров
Идентификатор кодека : V_MPEG4/ISO/AVC
Продолжительность : 2 ч. 13 м.
Битрейт : 10,3 Мбит/сек
Ширина : 1280 пикселей
Высота : 692 пикселя
Соотношение сторон : 1,85:1
Режим частоты кадров : Постоянный
Частота кадров : 23,976 кадра/сек
Цветовое пространство : YUV
Субдискретизация насыщенности : 4:2:0
Битовая глубина : 8 бит
Тип развёртки : Прогрессивная
Бит/(Пиксели*Кадры) : 0.483
Размер потока : 9,59 Гбайт (60%)
Заголовок : Человек дождя / Rain Man (1988) BDRip 720p by SC Kosmos
Библиотека кодирования : x264 core 146 r2538 121396c
Настройки программы : cabac=1 / ref=9 / deblock=1:-3:-3 / analyse=0x3:0x113 / me=umh / subme=11 / psy=1 / psy_rd=1.05:0.00 / mixed_ref=1 / me_range=32 / chroma_me=1 / trellis=2 / 8x8dct=1 / cqm=0 / deadzone=21,11 / fast_pskip=0 / chroma_qp_offset=-2 / threads=12 / lookahead_threads=3 / sliced_threads=0 / nr=0 / decimate=1 / interlaced=0 / bluray_compat=0 / constrained_intra=0 / bframes=12 / b_pyramid=2 / b_adapt=2 / b_bias=0 / direct=3 / weightb=1 / open_gop=0 / weightp=2 / keyint=240 / keyint_min=23 / scenecut=40 / intra_refresh=0 / rc_lookahead=50 / rc=crf / mbtree=0 / crf=17.0 / qcomp=0.60 / qpmin=0 / qpmax=69 / qpstep=4 / vbv_maxrate=62500 / vbv_bufsize=78125 / crf_max=0.0 / nal_hrd=none / filler=0 / ip_ratio=1.40 / pb_ratio=1.30 / aq=1:0.85
Язык : English
Default : Да
Forced : Нет
Основные цвета : BT.709
Характеристики трансфера : BT.709
Коэффициенты матрицы : BT.709
Аудио #1
Идентификатор : 2
Формат : AC-3
Формат/Информация : Audio Coding 3
Расширение режима : CM (complete main)
Параметр Endianness формата : Big
Идентификатор кодека : A_AC3
Продолжительность : 2 ч. 13 м.
Вид битрейта : Постоянный
Битрейт : 192 Кбит/сек
Каналы : 2 канала
Расположение каналов : Front: L R
Частота : 48,0 КГц
Битовая глубина : 16 бит
Метод сжатия : С потерями
Размер потока : 184 Мбайт (1%)
Заголовок : Дубляж
Язык : Russian
Default : Да
Forced : Нет
Аудио #2
Идентификатор : 3
Формат : AC-3
Формат/Информация : Audio Coding 3
Расширение режима : CM (complete main)
Параметр Endianness формата : Big
Идентификатор кодека : A_AC3
Продолжительность : 2 ч. 13 м.
Вид битрейта : Постоянный
Битрейт : 640 Кбит/сек
Каналы : 6 каналов
Расположение каналов : Front: L C R, Side: L R, LFE
Частота : 48,0 КГц
Битовая глубина : 16 бит
Метод сжатия : С потерями
Размер потока : 613 Мбайт (4%)
Заголовок : MVO ( BluRay )
Язык : Russian
Default : Нет
Forced : Нет
Аудио #3
Идентификатор : 4
Формат : AC-3
Формат/Информация : Audio Coding 3
Расширение режима : CM (complete main)
Параметр Endianness формата : Big
Идентификатор кодека : A_AC3
Продолжительность : 2 ч. 13 м.
Вид битрейта : Постоянный
Битрейт : 192 Кбит/сек
Каналы : 2 канала
Расположение каналов : Front: L R
Частота : 48,0 КГц
Битовая глубина : 16 бит
Метод сжатия : С потерями
Размер потока : 184 Мбайт (1%)
Заголовок : MVO ( Lazer Video )
Язык : Russian
Default : Нет
Forced : Нет
Аудио #4
Идентификатор : 5
Формат : AC-3
Формат/Информация : Audio Coding 3
Расширение режима : CM (complete main)
Параметр Endianness формата : Big
Идентификатор кодека : A_AC3
Продолжительность : 2 ч. 13 м.
Вид битрейта : Постоянный
Битрейт : 192 Кбит/сек
Каналы : 2 канала
Расположение каналов : Front: L R
Частота : 48,0 КГц
Битовая глубина : 16 бит
Метод сжатия : С потерями
Размер потока : 184 Мбайт (1%)
Заголовок : MVO ( OPT )
Язык : Russian
Default : Нет
Forced : Нет
Аудио #5
Идентификатор : 6
Формат : AC-3
Формат/Информация : Audio Coding 3
Расширение режима : CM (complete main)
Параметр Endianness формата : Big
Идентификатор кодека : A_AC3
Продолжительность : 2 ч. 13 м.
Вид битрейта : Постоянный
Битрейт : 640 Кбит/сек
Каналы : 6 каналов
Расположение каналов : Front: L C R, Side: L R, LFE
Частота : 48,0 КГц
Битовая глубина : 16 бит
Метод сжатия : С потерями
Размер потока : 613 Мбайт (4%)
Заголовок : MVO ( Позитив-Мультимедиа )
Язык : Russian
Default : Нет
Forced : Нет
Аудио #6
Идентификатор : 7
Формат : AC-3
Формат/Информация : Audio Coding 3
Расширение режима : CM (complete main)
Параметр Endianness формата : Big
Идентификатор кодека : A_AC3
Продолжительность : 2 ч. 13 м.
Вид битрейта : Постоянный
Битрейт : 640 Кбит/сек
Каналы : 6 каналов
Расположение каналов : Front: L C R, Side: L R, LFE
Частота : 48,0 КГц
Битовая глубина : 16 бит
Метод сжатия : С потерями
Размер потока : 613 Мбайт (4%)
Заголовок : MVO ( Superbit )
Язык : Russian
Default : Нет
Forced : Нет
Аудио #7
Идентификатор : 8
Формат : AC-3
Формат/Информация : Audio Coding 3
Расширение режима : CM (complete main)
Параметр Endianness формата : Big
Идентификатор кодека : A_AC3
Продолжительность : 2 ч. 13 м.
Вид битрейта : Постоянный
Битрейт : 192 Кбит/сек
Каналы : 2 канала
Расположение каналов : Front: L R
Частота : 48,0 КГц
Битовая глубина : 16 бит
Метод сжатия : С потерями
Размер потока : 184 Мбайт (1%)
Заголовок : MVO ( HTB 2000 ых )
Язык : Russian
Default : Нет
Forced : Нет
Аудио #8
Идентификатор : 9
Формат : AC-3
Формат/Информация : Audio Coding 3
Расширение режима : CM (complete main)
Параметр Endianness формата : Big
Идентификатор кодека : A_AC3
Продолжительность : 2 ч. 13 м.
Вид битрейта : Постоянный
Битрейт : 192 Кбит/сек
Каналы : 2 канала
Расположение каналов : Front: L R
Частота : 48,0 КГц
Битовая глубина : 16 бит
Метод сжатия : С потерями
Размер потока : 184 Мбайт (1%)
Заголовок : MVO ( HTB 90-ых )
Язык : Russian
Default : Нет
Forced : Нет
Аудио #9
Идентификатор : 10
Формат : AC-3
Формат/Информация : Audio Coding 3
Расширение режима : CM (complete main)
Параметр Endianness формата : Big
Идентификатор кодека : A_AC3
Продолжительность : 2 ч. 13 м.
Вид битрейта : Постоянный
Битрейт : 192 Кбит/сек
Каналы : 2 канала
Расположение каналов : Front: L R
Частота : 48,0 КГц
Битовая глубина : 16 бит
Метод сжатия : С потерями
Размер потока : 184 Мбайт (1%)
Заголовок : DVO ( А.В.Клюквин (Союз, Soventure) )
Язык : Russian
Default : Нет
Forced : Нет
Аудио #10
Идентификатор : 11
Формат : AC-3
Формат/Информация : Audio Coding 3
Расширение режима : CM (complete main)
Параметр Endianness формата : Big
Идентификатор кодека : A_AC3
Продолжительность : 2 ч. 13 м.
Вид битрейта : Постоянный
Битрейт : 192 Кбит/сек
Каналы : 2 канала
Расположение каналов : Front: L R
Частота : 48,0 КГц
Битовая глубина : 16 бит
Метод сжатия : С потерями
Размер потока : 184 Мбайт (1%)
Заголовок : AVO ( Гаврилов )
Язык : Russian
Default : Нет
Forced : Нет
Аудио #11
Идентификатор : 12
Формат : AC-3
Формат/Информация : Audio Coding 3
Расширение режима : CM (complete main)
Параметр Endianness формата : Big
Идентификатор кодека : A_AC3
Продолжительность : 2 ч. 13 м.
Вид битрейта : Постоянный
Битрейт : 640 Кбит/сек
Каналы : 6 каналов
Расположение каналов : Front: L C R, Side: L R, LFE
Частота : 48,0 КГц
Битовая глубина : 16 бит
Метод сжатия : С потерями
Размер потока : 613 Мбайт (4%)
Заголовок : AVO ( Горчаков )
Язык : Russian
Default : Нет
Forced : Нет
Аудио #12
Идентификатор : 13
Формат : AC-3
Формат/Информация : Audio Coding 3
Расширение режима : CM (complete main)
Параметр Endianness формата : Big
Идентификатор кодека : A_AC3
Продолжительность : 2 ч. 13 м.
Вид битрейта : Постоянный
Битрейт : 640 Кбит/сек
Каналы : 6 каналов
Расположение каналов : Front: L C R, Side: L R, LFE
Частота : 48,0 КГц
Битовая глубина : 16 бит
Метод сжатия : С потерями
Размер потока : 613 Мбайт (4%)
Заголовок : AVO ( Михалёв )
Язык : Russian
Default : Нет
Forced : Нет
Аудио #13
Идентификатор : 14
Формат : AC-3
Формат/Информация : Audio Coding 3
Расширение режима : CM (complete main)
Параметр Endianness формата : Big
Идентификатор кодека : A_AC3
Продолжительность : 2 ч. 13 м.
Вид битрейта : Постоянный
Битрейт : 640 Кбит/сек
Каналы : 6 каналов
Расположение каналов : Front: L C R, Side: L R, LFE
Частота : 48,0 КГц
Битовая глубина : 16 бит
Метод сжатия : С потерями
Размер потока : 613 Мбайт (4%)
Заголовок : AVO ( Живов )
Язык : Russian
Default : Нет
Forced : Нет
Аудио #14
Идентификатор : 15
Формат : AC-3
Формат/Информация : Audio Coding 3
Расширение режима : CM (complete main)
Параметр Endianness формата : Big
Идентификатор кодека : A_AC3
Продолжительность : 2 ч. 13 м.
Вид битрейта : Постоянный
Битрейт : 448 Кбит/сек
Каналы : 6 каналов
Расположение каналов : Front: L C R, Side: L R, LFE
Частота : 48,0 КГц
Битовая глубина : 16 бит
Метод сжатия : С потерями
Размер потока : 429 Мбайт (3%)
Заголовок : AVO ( Сербин )
Язык : Russian
Default : Нет
Forced : Нет
Аудио #15
Идентификатор : 16
Формат : AC-3
Формат/Информация : Audio Coding 3
Расширение режима : CM (complete main)
Параметр Endianness формата : Big
Идентификатор кодека : A_AC3
Продолжительность : 2 ч. 13 м.
Вид битрейта : Постоянный
Битрейт : 192 Кбит/сек
Каналы : 2 канала
Расположение каналов : Front: L R
Частота : 48,0 КГц
Битовая глубина : 16 бит
Метод сжатия : С потерями
Размер потока : 184 Мбайт (1%)
Заголовок : AVO ( Володарский )
Язык : Russian
Default : Нет
Forced : Нет
Аудио #16
Идентификатор : 17
Формат : AC-3
Формат/Информация : Audio Coding 3
Расширение режима : CM (complete main)
Параметр Endianness формата : Big
Идентификатор кодека : A_AC3
Продолжительность : 2 ч. 13 м.
Вид битрейта : Постоянный
Битрейт : 640 Кбит/сек
Каналы : 6 каналов
Расположение каналов : Front: L C R, Side: L R, LFE
Частота : 48,0 КГц
Битовая глубина : 16 бит
Метод сжатия : С потерями
Размер потока : 613 Мбайт (4%)
Язык : English
Default : Нет
Forced : Нет
Текст #1
Идентификатор : 18
Формат : UTF-8
Идентификатор кодека : S_TEXT/UTF8
Идентификатор кодека/Информация : UTF-8 Plain Text
Заголовок : Forced
Язык : Russian
Default : Да
Forced : Да
Текст #2
Идентификатор : 19
Формат : UTF-8
Идентификатор кодека : S_TEXT/UTF8
Идентификатор кодека/Информация : UTF-8 Plain Text
Заголовок : BluRay
Язык : Russian
Default : Нет
Forced : Нет
Текст #3
Идентификатор : 20
Формат : UTF-8
Идентификатор кодека : S_TEXT/UTF8
Идентификатор кодека/Информация : UTF-8 Plain Text
Язык : Russian
Default : Нет
Forced : Нет
Текст #4
Идентификатор : 21
Формат : UTF-8
Идентификатор кодека : S_TEXT/UTF8
Идентификатор кодека/Информация : UTF-8 Plain Text
Заголовок : Позитив
Язык : Russian
Default : Нет
Forced : Нет
Текст #5
Идентификатор : 22
Формат : UTF-8
Идентификатор кодека : S_TEXT/UTF8
Идентификатор кодека/Информация : UTF-8 Plain Text
Заголовок : STEVVIE
Язык : Russian
Default : Нет
Forced : Нет
Текст #6
Идентификатор : 23
Формат : UTF-8
Идентификатор кодека : S_TEXT/UTF8
Идентификатор кодека/Информация : UTF-8 Plain Text
Язык : English
Default : Нет
Forced : Нет
Текст #7
Идентификатор : 24
Формат : UTF-8
Идентификатор кодека : S_TEXT/UTF8
Идентификатор кодека/Информация : UTF-8 Plain Text
Заголовок : SDH
Язык : English
Default : Нет
Forced : Нет
Меню
00:00:00.000 : en:00:00:00.000
00:02:56.343 : en:00:02:56.343
00:05:59.317 : en:00:05:59.317
00:08:26.506 : en:00:08:26.506
00:12:32.752 : en:00:12:32.752
00:15:04.445 : en:00:15:04.445
00:20:17.967 : en:00:20:17.967
00:25:44.042 : en:00:25:44.042
00:28:45.432 : en:00:28:45.432
00:32:20.313 : en:00:32:20.313
00:37:43.845 : en:00:37:43.845
00:40:48.071 : en:00:40:48.071
00:43:22.391 : en:00:43:22.391
00:47:34.852 : en:00:47:34.852
00:51:35.175 : en:00:51:35.175
00:54:44.781 : en:00:54:44.781
00:57:34.284 : en:00:57:34.284
01:00:01.973 : en:01:00:01.973
01:03:48.658 : en:01:03:48.658
01:09:11.314 : en:01:09:11.314
01:11:56.395 : en:01:11:56.395
01:19:44.196 : en:01:19:44.196
01:23:45.062 : en:01:23:45.062
01:34:20.572 : en:01:34:20.572
01:36:55.059 : en:01:36:55.059
01:42:30.019 : en:01:42:30.019
01:47:49.463 : en:01:47:49.463
01:50:57.651 : en:01:50:57.651
01:53:46.403 : en:01:53:46.403
01:56:40.368 : en:01:56:40.368
02:06:30.583 : en:02:06:30.583
02:10:38.080 : en:02:10:38.080





MVO Позитив, MVO SuperBit, Горчаков, Михалев, Живов - Geralt iz Rivii
ЦитатаКто-то писал:
За дороги с авторскими переводами Михалева, Горчакова и Живова большое спасибо Dеvlad с HD-Club.
За дорогу с многоголосым переводом Позитива большое спасибо Serg1004
НТВ 2000 ых и НТВ 90-ых годов - dimetrio1981
ЦитатаКто-то писал:
Синхронизировал дороги нтв (90)ых и нтв + она же нтв,твц и тнт 2000 ых Werewolf77 за что ему огромное спасибо!!!Дорогу нтв (90)ых предоставил Vitya0007,дорогу нтв + она же нтв 2000 ых спасибы Alexstar777 и Miller38
Володарский - edich2
ЦитатаКто-то писал:
За Володарского спасибо alenavova, за подгон дороги спасибо JUSTKANT
MVO ОРТ, MVO Лазер Видео - JUSTKANT
ЦитатаКто-то писал:
miha2154 - собственная запись перевода ОРТ с Первого Канала через кабель.
Cocotte32 - собственная оцифровка перевода со своей лицензионной видеокассеты от видео-компании Лазер Видео.
JUSTKANT - синхронизация всех переводов.
Сербин - kingsize87 и HQCLUB
ЦитатаКто-то писал:
За перевод Сербина большое спасибо пользователям форумов
hdtracker.org:
_MyxAmoP_, ZeRoNe, timur, kondratzx, banan87, sobolka, Role, HDKing, Gross1978, chernila
и Е-180:
пуля, luka69, uchitel538, foxlight, Nadoelo, Skoped, carnivale, GKillah, urassiks, Ochkarik1, fryak, axl-dr, STONECOLD, denis_mgn_1987, Loki1982, olegsoleg, Foots, Kastro, masta, Iceman, Водолей, Ramis, GansAn, Марлон, ARTYq, DeASS, Andrey_Tula, xerman13
Профессиональный (двухголосый закадровый) с Клюквиным - Sokolmy2


_________________
Проголосуй за трекер Открытый торрент трекер - RUS-MEDIA.ORG

Проголосуй Открытый торрент трекер - RUS-MEDIA.ORG



реклама партнёра


Вернуться к началу
 Профиль Отправить личное сообщение  
 
   Похожие торренты   Автор   Торрент   Размер 
В этой теме нет новых непрочитанных сообщений. Человек дождя / Rain Man [драма, 1988] HDRip, Mvo [НТВ+]

salma3

34 | 11

1.46 ГБ

В этой теме нет новых непрочитанных сообщений. После дождя / After the Rain [драма, 1999] SATRip, Dvo

salma3

9 | 3

1.09 ГБ

В этой теме нет новых непрочитанных сообщений. Черный дождь / Black Rain [Боевик, триллер, драма, криминал, 1989] BDRip 720p, Mvo

salma3

15 | 12

11.22 ГБ

В этой теме нет новых непрочитанных сообщений. Пассажир дождя / Le Passager de la pluie [Детектив, триллер, драма, 1969] BDRip-AVC, Dvo

salma3

11 | 5

2.19 ГБ

В этой теме нет новых непрочитанных сообщений. Пассажир дождя / Le passager de la pluie [Триллер, драма, криминал, 1969] BDRip 1080p, Dvo

salma3

53 | 34

12.98 ГБ

В этой теме нет новых непрочитанных сообщений. Иррациональный человек / Irrational Man [драма, детектив, 2015] BDRip 720p, dub [iTunes]

Dracon

1514 | 133

6.56 ГБ

В этой теме нет новых непрочитанных сообщений. Человек с запада / Man of the West [драма, мелодрама, вестерн, 1958] BDRip 720p, Dvo

salma3

134 | 24

3.24 ГБ


Начать новую тему Ответить на тему  [ 1 сообщение ] 




Для Мосгорсуда, Роскомнадзора и рекламодателей:: mosgorsud-torrent[собачка]yandex.ru