Торрент файл
скачать торрент магнет ссылка Добавлен: 13 ноя 2016, 02:48
Размер: 4.02 ГБ
Сидеров: 0
Личеров: 0
Автор

СообщениеДобавлено: 13 ноя 2016, 02:48 

Не в сети
Дата регистрации:
28 сен 2016, 18:10
Спасибо: 216 / 0
Сообщения: 1996
Информация о фильме
Название: Восставшие мертвецы
Оригинальное название: Dead Rising: Watchtower
Год выпуска: 2015
Жанр: Боевик, ужасы, триллер
Режиссер: Зак Липовски
В ролях: Меган Ори, Киган Коннор Трейси, Вирджиния Мэдсен, Дэннис Хэйсберт, Роб Риггл, Джесси Меткалф, Джулия Андерсон, Алекс Паунович, Питер Бенсон, Патрик Сабонгуй, Харли Моренштейн, Кэрри Гензел, С. Эрнст Харт, Сачин Сахель, Гари Джонс, Пол Лейзенби, Мэнни Хасинто, Риз Александр, Тая Клайн, Колтон Квон
О фильме:
В Штатах объявился вирус, превращающий людей в зомби, но властям удалось подавить вспышку эпидемии, создав вакцину под названием Zombrex – она помогает не обращаться в кровожадного мертвеца даже тем, кого укусили зараженные. Однако очередная партия Zombrex оказывается неэффективной и возле гигантского стадиона Metrodome начинается эпидемия. В ее эпицентре оказывается журналист Чейз Картер (Джесси Меткалф), который продолжает репортаж, несмотря на хаос творящийся вокруг

Страна: США
Студия: Legendary Digital Media, Contradiction Films, Di Bonaventura Pictures
Продолжительность: 01:58:07
Перевод: Профессиональное (многоголосое) официальное, любительский (двухголосый закадровый) (Sunny-Films)
Субтитры: Английские
Файл
Качество: BDRip (720p)
Видео: AVC, 1280x534 (2.35:1), 23.976 fps, 4 109 Kbps (0.251 bit/pixel)
Аудио #1: AC-3, 48.0 KHz, 2 ch, 192 Kbps, CBR (Russian)
Аудио #2: AC-3, 48.0 KHz, 2 ch, 192 Kbps, CBR (Russian)
Аудио #3: AC-3, 48.0 KHz, 6 ch, 384 Kbps, CBR (English)
x264 [info]: profile High, level 4.1
x264 [info]: frame I:1392 Avg QP:12.25 size: 83453 PSNR Mean Y:51.55 U:53.25 V:54.12 Avg:52.01 Global:51.37
x264 [info]: frame P:46498 Avg QP:15.05 size: 36886 PSNR Mean Y:49.75 U:52.67 V:53.59 Avg:50.29 Global:49.49
x264 [info]: frame B:121998 Avg QP:16.82 size: 14807 PSNR Mean Y:48.78 U:50.78 V:52.18 Avg:49.26 Global:48.45
Формат : Matroska
Версия формата : Version 2
Размер файла : 4,02 Гбайт
Продолжительность : 1 ч. 58 м.
Общий поток : 4877 Кбит/сек
Дата кодирования : UTC 2016-11-10 08:23:02
Программа кодирования : mkvmerge v5.3.0 ('I could have danced') built on Feb 9 2012 10:38:07
Библиотека кодирования : libebml v1.2.3 + libmatroska v1.3.0
Attachment : Yes
Видео
Идентификатор : 1
Формат : AVC
Формат/Информация : Advanced Video Codec
Профиль формата : High@L4.1
Параметр CABAC формата : Да
Параметр ReFrames формата : 10 кадров
Идентификатор кодека : V_MPEG4/ISO/AVC
Продолжительность : 1 ч. 58 м.
Битрейт : 4109 Кбит/сек
Ширина : 1280 пикселей
Высота : 534 пикселя
Соотношение сторон : 2,40:1
Режим частоты кадров : Постоянный
Частота кадров : 23,976 кадра/сек
Цветовое пространство : YUV
Субдискретизация насыщенности : 4:2:0
Битовая глубина : 8 бит
Тип развёртки : Прогрессивная
Бит/(Пиксели*Кадры) : 0.251
Размер потока : 3,31 Гбайт (82%)
Библиотека кодирования : x264 core 146 r2538 121396c
Настройки программы : cabac=1 / ref=10 / deblock=1:-3:-3 / analyse=0x3:0x133 / me=umh / subme=11 / psy=1 / psy_rd=1.00:0.00 / mixed_ref=1 / me_range=32 / chroma_me=1 / trellis=2 / 8x8dct=1 / cqm=0 / deadzone=21,11 / fast_pskip=0 / chroma_qp_offset=-2 / threads=12 / lookahead_threads=2 / sliced_threads=0 / nr=0 / decimate=0 / interlaced=0 / bluray_compat=0 / constrained_intra=0 / bframes=8 / b_pyramid=2 / b_adapt=2 / b_bias=0 / direct=3 / weightb=1 / open_gop=0 / weightp=2 / keyint=240 / keyint_min=23 / scenecut=40 / intra_refresh=0 / rc=2pass / mbtree=0 / bitrate=4109 / ratetol=1.0 / qcomp=0.60 / qpmin=0 / qpmax=69 / qpstep=4 / cplxblur=20.0 / qblur=0.5 / ip_ratio=1.40 / pb_ratio=1.30 / aq=1:0.70
Default : Да
Forced : Нет
Аудио #1
Идентификатор : 2
Формат : AC-3
Формат/Информация : Audio Coding 3
Расширение режима : CM (complete main)
Параметр Endianness формата : Big
Идентификатор кодека : A_AC3
Продолжительность : 1 ч. 58 м.
Вид битрейта : Постоянный
Битрейт : 192 Кбит/сек
Каналы : 2 канала
Расположение каналов : Front: L R
Частота : 48,0 КГц
Битовая глубина : 16 бит
Метод сжатия : С потерями
Размер потока : 162 Мбайт (4%)
Заголовок : Профессиональное (многоголосое) официальное
Язык : Russian
Default : Да
Forced : Нет
Аудио #2
Идентификатор : 3
Формат : AC-3
Формат/Информация : Audio Coding 3
Расширение режима : CM (complete main)
Параметр Endianness формата : Big
Идентификатор кодека : A_AC3
Продолжительность : 1 ч. 58 м.
Вид битрейта : Постоянный
Битрейт : 192 Кбит/сек
Каналы : 2 канала
Расположение каналов : Front: L R
Частота : 48,0 КГц
Битовая глубина : 16 бит
Метод сжатия : С потерями
Размер потока : 162 Мбайт (4%)
Заголовок : Любительский (двухголосый закадровый) (Sunny-Films)
Язык : Russian
Default : Нет
Forced : Нет
Аудио #3
Идентификатор : 4
Формат : AC-3
Формат/Информация : Audio Coding 3
Расширение режима : CM (complete main)
Параметр Endianness формата : Big
Идентификатор кодека : A_AC3
Продолжительность : 1 ч. 58 м.
Вид битрейта : Постоянный
Битрейт : 384 Кбит/сек
Каналы : 6 каналов
Расположение каналов : Front: L C R, Side: L R, LFE
Частота : 48,0 КГц
Битовая глубина : 16 бит
Метод сжатия : С потерями
Размер потока : 324 Мбайт (8%)
Язык : English
Default : Нет
Forced : Нет
Текст
Идентификатор : 5
Формат : UTF-8
Идентификатор кодека : S_TEXT/UTF8
Идентификатор кодека/Информация : UTF-8 Plain Text
Язык : English
Default : Нет
Forced : Нет
Меню
00:00:00.000 : en:00:00:00.000
00:15:38.437 : en:00:15:38.437
00:31:02.527 : en:00:31:02.527
00:47:07.116 : en:00:47:07.116
00:58:40.267 : en:00:58:40.267
01:18:10.436 : en:01:18:10.436
01:35:17.337 : en:01:35:17.337
01:49:46.580 : en:01:49:46.580

Скриншоты:



Вернуться к началу
 Профиль Отправить личное сообщение  
 
   Похожие торренты   Автор   Торрент   Размер 
В этой теме нет новых непрочитанных сообщений. Восставшие мертвецы: Конец игры / Dead Rising: Endgame [Ужасы, боевик, 2016] BDRip 720p, Mvo

salma3

58 | 26

3.48 ГБ

В этой теме нет новых непрочитанных сообщений. Восставшие мертвецы: конец игры / Dead Rising: Endgame (Ужасы, боевик, 2016) BDRip 1080p | L

marya111

25 | 2

9.05 ГБ

В этой теме нет новых непрочитанных сообщений. Восставшие мертвецы: конец игры / Dead Rising: Endgame [ужасы, боевик, 2016] HDRip, Mvo

salma3

538 | 58

1.37 ГБ

В этой теме нет новых непрочитанных сообщений. Восставшие мертвецы: конец игры / Dead Rising: Endgame [Ужасы,боевик, 2016] HDRip, Avo

salma3

256 | 6

1.38 ГБ

В этой теме нет новых непрочитанных сообщений. Пылающие мертвецы / The Burning Dead [боевик, ужасы, 2015] BDRip 720p, Mvo

salma3

137 | 65

3.38 ГБ

В этой теме нет новых непрочитанных сообщений. Ходячие мертвецы / The Walking Dead [S01-07x01-88 из 99] [Мистика, триллер, ужасы, 2010-2016] BDRip 720p, WEB-DLRip 720p, Mvo [FOX]

salma3

20 | 72

40.89 ГБ

В этой теме нет новых непрочитанных сообщений. Ходячие мертвецы / The Walking Dead [06x01-05 из 16] (Эрнест Р. Дикерсон, Грег Никотеро, Гай Ферленд) [2015, Ужасы, триллер, драма, WEB-DL 720p | Jaskier]

Nickolas3435

72 | 329

8.65 ГБ


Начать новую тему Ответить на тему  [ 1 сообщение ] 




Для Мосгорсуда, Роскомнадзора и рекламодателей:: mosgorsud-torrent[собачка]yandex.ru
cron