Торрент файл
скачать торрент магнет ссылка Добавлен: 11 ноя 2016, 23:49
Размер: 35.07 ГБ
Сидеров: 19
Личеров: 6
Статус: (salma3)
Автор

СообщениеДобавлено: 11 ноя 2016, 23:49 

Не в сети
Супермодератор
Аватара пользователя
Дата регистрации:
15 фев 2012, 16:44
Возраст: 28
Спасибо: 6468 / 2129
Сообщения: 40780
Страна: США
Производство: Universal Pictures, Walrus & Associates
Год выпуска: 1990
Жанр: драма, биография
Продолжительность: 02:16:15
Режиссер: Филип Кауфман

В ролях: Фред Уорд, Ума Турман, Мария де Медейруш, Ричард Э. Грант, Кевин Спейси, Жан-Филипп Экоффей, Брюс Майерс, Хуан Луис Бунюэль

Описание: Истосковавшаяся по сильным, чувственным ощущениям, очаровательная писательница Анаис Нин проводит дни за подробным изложением своих эротических переживаний в личном дневнике. Её существование не приносит никакого удовольствия: жизнь тосклива и приторна, словно сироп. Свободного времени у неё хватает на десятерых; порядочный, но скучный муж надоел до безумия, и, казалось бы, ничто уже не сможет вырвать Анаис из пресного бытия. Но именно в этот момент появляется удивительная пара: странный, вульгарного вида, тип по имени Генри Миллер и его таинственная красавица-жена Джун…



Перевод: Профессиональный (многоголосый, закадровый) + Любительский (одноголосый, закадровый)
Субтитры: английские

Качество: BDRemux 1080p
Формат: МКV
Видео кодек: AVC
Аудио кодек: АС3 | DTS
Видео: 1920x1080 (16:9), 23.976 fps, MPEG-4 AVC ~35.0 Мbps avg
Аудио №1: 48.0 kHz, AC3 Dolby Digital, 2/0 (L,R) ch, ~192.00 kbps | RUS / MVO
Аудио №2: 48.0 kHz, AC3 Dolby Digital, 2/0 (L,R) ch, ~192.00 kbps | RUS / VO
Аудио №3: 48.0 kHz, Digital Theater Systems Master Audio, 2/0 (L,R) ch, ~1706 kbps / 16-bit | ENG
Формат субтитров: UTF-8 Plain Text
Дата премьеры (мир): 28 сентября 1990
Релиз от:
Уникальный идентификатор : 205462432560897605196393744154733145193 (0x9A92A0089F566B70B0A92368E4F16C69)
Полное имя : Henry.&.June.1990.BDRemux.1080p_by_vedigo.mkv
Формат : Matroska
Версия формата : Version 4 / Version 2
Размер файла : 35,1 Гбайт
Продолжительность : 2 ч. 16 м.
Режим общего битрейта : Переменный
Общий поток : 36,8 Мбит/сек
Название фильма : Henry.&.June.1990.BDRemux.1080p_by_vedigo
Дата кодирования : UTC 2016-11-11 05:51:16
Программа кодирования : mkvmerge v9.5.0 ('Quiet Fire') 64bit
Библиотека кодирования : libebml v1.3.4 + libmatroska v1.4.5
Видео
Идентификатор : 1
Формат : AVC
Формат/Информация : Advanced Video Codec
Профиль формата : High@L4.1
Параметр CABAC формата : Да
Параметр ReFrames формата : 3 кадра
Идентификатор кодека : V_MPEG4/ISO/AVC
Продолжительность : 2 ч. 16 м.
Вид битрейта : Переменный
Битрейт : 35,0 Мбит/сек
Максимальный битрейт : 37,0 Мбит/сек
Ширина : 1920 пикселей
Высота : 1080 пикселей
Соотношение сторон : 16:9
Режим частоты кадров : Постоянный
Частота кадров : 23,976 (24000/1001) кадра/сек
Стандарт вещания : NTSC
Цветовое пространство : YUV
Субдискретизация насыщенности : 4:2:0
Битовая глубина : 8 бит
Тип развёртки : Прогрессивная
Бит/(Пиксели*Кадры) : 0.704
Размер потока : 33,1 Гбайт (94%)
Заголовок : Henry.&.June.1990.BDRemux.1080p_by_vedigo
Библиотека кодирования : x264pro - Adobe CS Exporter Plug-in
Настройки программы : cabac=1 / ref=4 / deblock=1:-2:-2 / analyse=0x3:0x113 / me=umh / subme=8 / psy=1 / psy_rd=1.00:0.25 / mixed_ref=1 / me_range=16 / chroma_me=1 / trellis=1 / 8x8dct=1 / cqm=0 / deadzone=6,6 / fast_pskip=1 / chroma_qp_offset=-4 / threads=12 / lookahead_threads=2 / sliced_threads=0 / slices=4 / nr=0 / decimate=0 / interlaced=0 / bluray_compat=1 / constrained_intra=0 / bframes=3 / b_pyramid=1 / b_adapt=2 / b_bias=0 / direct=3 / weightb=1 / open_gop=0 / weightp=1 / keyint=24 / keyint_min=1 / scenecut=40 / intra_refresh=0 / rc_lookahead=24 / rc=abr / mbtree=1 / bitrate=35000 / ratetol=1.0 / qcomp=0.80 / qpmin=0 / qpmax=69 / qpstep=4 / vbv_maxrate=37000 / vbv_bufsize=30000 / nal_hrd=vbr / ip_ratio=1.10 / aq=1:0.49
Default : Да
Forced : Нет
Цветовой диапазон : Limited
Основные цвета : BT.709
Характеристики трансфера : BT.709
Коэффициенты матрицы : BT.709
Аудио #1
Идентификатор : 2
Формат : AC-3
Формат/Информация : Audio Coding 3
Расширение режима : CM (complete main)
Параметр Endianness формата : Big
Идентификатор кодека : A_AC3
Продолжительность : 2 ч. 16 м.
Вид битрейта : Постоянный
Битрейт : 192 Кбит/сек
Каналы : 2 канала
Расположение каналов : Front: L R
Частота : 48,0 КГц
Частота кадров : 31,250 кадров/сек (1536 spf)
Метод сжатия : С потерями
Размер потока : 187 Мбайт (1%)
Заголовок : MVO
Язык : Russian
Default : Да
Forced : Нет
Аудио #2
Идентификатор : 3
Формат : AC-3
Формат/Информация : Audio Coding 3
Расширение режима : CM (complete main)
Параметр Endianness формата : Big
Идентификатор кодека : A_AC3
Продолжительность : 2 ч. 16 м.
Вид битрейта : Постоянный
Битрейт : 192 Кбит/сек
Каналы : 2 канала
Расположение каналов : Front: L R
Частота : 48,0 КГц
Частота кадров : 31,250 кадров/сек (1536 spf)
Метод сжатия : С потерями
Размер потока : 187 Мбайт (1%)
Заголовок : VO
Язык : Russian
Default : Нет
Forced : Нет
Аудио #3
Идентификатор : 4
Формат : DTS
Формат/Информация : Digital Theater Systems
Профиль формата : MA / Core
Режим : 16
Параметр Endianness формата : Big
Идентификатор кодека : A_DTS
Продолжительность : 2 ч. 16 м.
Вид битрейта : Переменный / Постоянный
Битрейт : 1706 Кбит/сек / 1509 Кбит/сек
Каналы : 2 канала
Расположение каналов : Front: L R
Частота : 48,0 КГц
Частота кадров : 93,750 кадра/сек (512 spf)
Битовая глубина : 16 бит
Метод сжатия : Без потерь / Lossy
Размер потока : 1,62 Гбайт (5%)
Заголовок : Original
Язык : English
Default : Нет
Forced : Нет
Текст
Идентификатор : 5
Формат : UTF-8
Идентификатор кодека : S_TEXT/UTF8
Идентификатор кодека/Информация : UTF-8 Plain Text
Продолжительность : 2 ч. 11 м.
Битрейт : 37 бит/сек
Count of elements : 1079
Размер потока : 35,9 Кбайт (0%)
Заголовок : Subtitle eng
Язык : English
Default : Нет
Forced : Нет
Меню
00:00:00.000 : en:00:00:00.000
00:07:51.554 : en:00:07:51.554
00:16:34.452 : en:00:16:34.452
00:25:50.215 : en:00:25:50.215
00:32:02.003 : en:00:32:02.003
00:42:00.893 : en:00:42:00.893
00:53:08.811 : en:00:53:08.811
00:56:58.624 : en:00:56:58.624
01:05:31.344 : en:01:05:31.344
01:14:06.150 : en:01:14:06.150
01:20:20.190 : en:01:20:20.190
01:34:26.786 : en:01:34:26.786
01:44:22.047 : en:01:44:22.047
01:57:44.140 : en:01:57:44.140
02:07:01.656 : en:02:07:01.656
02:12:55.676 : en:02:12:55.676


_________________
Проголосуй за трекер Открытый торрент трекер - RUS-MEDIA.ORG

Проголосуй Открытый торрент трекер - RUS-MEDIA.ORG



реклама партнёра


Вернуться к началу
 Профиль Отправить личное сообщение  
 
   Похожие торренты   Автор   Торрент   Размер 
В этой теме нет новых непрочитанных сообщений. Генри и Джун / Henry and June [драма, биография, 1990] BDRip 720p, Mvo

salma3

0 | 0

7.11 ГБ

В этой теме нет новых непрочитанных сообщений. Генри: Портрет серийного убийцы / Henry: Portrait of a Serial Killer [триллер, драма, криминал, биография, 1986] BDRip 720p, Mvo

salma3

38 | 13

5 ГБ

В этой теме нет новых непрочитанных сообщений. Демоны Джун / June (Л. Густаво Купер) [ужасы, фантастика, 2015] WEB-DLRip, dvo

Dracon

1052 | 68

1.37 ГБ

В этой теме нет новых непрочитанных сообщений. Демоны Джун / June (Л. Густаво Купер) [ужасы, фантастика, 2015] WEB-DL 720p, dvo

Dracon

855 | 53

2.82 ГБ

В этой теме нет новых непрочитанных сообщений. Книга Генри / The Book of Henry [триллер, драма, криминал, 2017] HDRip, Mvo

salma3

0 | 0

1.46 ГБ

В этой теме нет новых непрочитанных сообщений. Демоны Джун / June (Л. Густаво Купер) [ужасы, фантастика, 2015] HDRip, dub [Чистый звук]

Dracon

61 | 4

1.37 ГБ

В этой теме нет новых непрочитанных сообщений. Книга Генри / The Book of Henry [триллер, драма, криминал, 2017] WEB-DLRip 720p, Mvo

salma3

240 | 28

3.36 ГБ


Начать новую тему Ответить на тему  [ 1 сообщение ] 




Для Мосгорсуда, Роскомнадзора и рекламодателей:: mosgorsud-torrent[собачка]yandex.ru