Торрент файл
скачать торрент магнет ссылка Добавлен: 07 ноя 2016, 12:41
Размер: 4.09 ГБ
Сидеров: 0
Личеров: 0
Статус: (salma3)
Автор

СообщениеДобавлено: 07 ноя 2016, 12:41 

Не в сети
Супермодератор
Аватара пользователя
Дата регистрации:
15 фев 2012, 16:44
Возраст: 28
Спасибо: 7290 / 2147
Сообщения: 70489
Год выхода: 2016
Жанр: Комедия
Режиссер: Оливер Паркер

В ролях: Кэтрин Зета-Джонс, Билл Найи, Майкл Гэмбон, Тоби Джонс, Сара Ланкашир, Марк Гейтисс, Дэниэл Мейс, Элисон Стэдмен, Том Кортни, Блейк Харрисон

О фильме:
Вторая мировая война близится к концу. Бравому отряду из Уолмингтона приходится столкнуться с симпатичной журналисткой и по совместительству немецкой шпионкой.



Страна: Великобритания
Студия: DJ Films
Продолжительность: 01:39:52
Перевод: Дублированный [Лицензия]

Файл
Кодек: MPEG-4
Качество: BDRip 720
Видео: 1280x534, 4300 Kbit/s, 23.976 fps
Звук:
Аудио #01: 48 kHz, DTS, 5.1, 768 Kbps | Дублированный | Лицензия |
Аудио #02: 48 kHz, AC3, 5.1, 448 Kbps | Дублированный | Лицензия |
Аудио #03: 48 kHz, AC3, 5.1, 384 kbps | Оригинал |
Субтитры: Английские

Общее
Уникальный идентификатор : 219384987811164545957301075401963837795 (0xA50C030139D19969AA200356301D9963)
Полное имя : G:VideoDad's.Army.2016.BDRip.720p.ExKinoRay.mkv
Формат : Matroska
Версия формата : Version 4 / Version 2
Размер файла : 4,09 Гбайт
Продолжительность : 1 ч. 39 м.
Общий поток : 5859 Кбит/сек
Название фильма : ***селезень***
Дата кодирования : UTC 2016-09-18 04:27:02
Программа кодирования : mkvmerge v8.3.0 ('Over the Horizon') 64bit
Библиотека кодирования : libebml v1.3.1 + libmatroska v1.4.2
Видео
Идентификатор : 1
Формат : AVC
Формат/Информация : Advanced Video Codec
Профиль формата : High@L4.1
Параметр CABAC формата : Да
Параметр ReFrames формата : 12 кадров
Идентификатор кодека : V_MPEG4/ISO/AVC
Продолжительность : 1 ч. 39 м.
Битрейт : 4258 Кбит/сек
Ширина : 1280 пикселей
Высота : 534 пикселя
Соотношение сторон : 2,40:1
Режим частоты кадров : Постоянный
Частота кадров : 23,976 (24000/1001) кадра/сек
Цветовое пространство : YUV
Субдискретизация насыщенности : 4:2:0
Битовая глубина : 8 бит
Тип развёртки : Прогрессивная
Бит/(Пиксели*Кадры) : 0.260
Размер потока : 2,97 Гбайт (73%)
Заголовок : ***селезень***
Библиотека кодирования : x264 core 148 r2694 3b70645
Настройки программы : cabac=1 / ref=12 / deblock=1:-3:-3 / analyse=0x3:0x113 / me=umh / subme=11 / psy=1 / psy_rd=1.00:0.00 / mixed_ref=1 / me_range=48 / chroma_me=1 / trellis=2 / 8x8dct=1 / cqm=0 / deadzone=21,11 / fast_pskip=0 / chroma_qp_offset=-2 / threads=8 / lookahead_threads=1 / sliced_threads=0 / nr=0 / decimate=1 / interlaced=0 / bluray_compat=0 / constrained_intra=0 / bframes=8 / b_pyramid=2 / b_adapt=1 / b_bias=0 / direct=1 / weightb=1 / open_gop=0 / weightp=2 / keyint=240 / keyint_min=24 / scenecut=40 / intra_refresh=0 / rc_lookahead=60 / rc=2pass / mbtree=1 / bitrate=4258 / ratetol=1.0 / qcomp=0.60 / qpmin=0 / qpmax=69 / qpstep=4 / cplxblur=20.0 / qblur=0.5 / vbv_maxrate=50000 / vbv_bufsize=25000 / nal_hrd=none / filler=0 / ip_ratio=1.40 / aq=1:1.00
Язык : English
Default : Да
Forced : Нет
Аудио #1
Идентификатор : 2
Формат : DTS
Формат/Информация : Digital Theater Systems
Режим : 16
Параметр Endianness формата : Big
Идентификатор кодека : A_DTS
Продолжительность : 1 ч. 39 м.
Вид битрейта : Постоянный
Битрейт : 768 Кбит/сек
Каналы : 6 каналов
Расположение каналов : Front: L C R, Side: L R, LFE
Частота : 48,0 КГц
Частота кадров : 93,750 кадра/сек (512 spf)
Битовая глубина : 24 бит
Метод сжатия : С потерями
Размер потока : 549 Мбайт (13%)
Заголовок : Dub-DTS [Blu-Ray CEE]
Язык : Russian
Default : Да
Forced : Нет
Аудио #2
Идентификатор : 3
Формат : AC-3
Формат/Информация : Audio Coding 3
Расширение режима : CM (complete main)
Параметр Endianness формата : Big
Идентификатор кодека : A_AC3
Продолжительность : 1 ч. 39 м.
Вид битрейта : Постоянный
Битрейт : 448 Кбит/сек
Каналы : 6 каналов
Расположение каналов : Front: L C R, Side: L R, LFE
Частота : 48,0 КГц
Частота кадров : 31,250 кадров/сек (1536 spf)
Метод сжатия : С потерями
Размер потока : 320 Мбайт (8%)
Заголовок : Dub-AC3 [Blu-Ray CEE]
Язык : Russian
Default : Нет
Forced : Нет
Аудио #3
Идентификатор : 4
Формат : AC-3
Формат/Информация : Audio Coding 3
Расширение режима : CM (complete main)
Параметр Endianness формата : Big
Идентификатор кодека : A_AC3
Продолжительность : 1 ч. 39 м.
Вид битрейта : Постоянный
Битрейт : 384 Кбит/сек
Каналы : 6 каналов
Расположение каналов : Front: L C R, Side: L R, LFE
Частота : 48,0 КГц
Частота кадров : 31,250 кадров/сек (1536 spf)
Метод сжатия : С потерями
Размер потока : 274 Мбайт (7%)
Заголовок : Original
Язык : English
Default : Нет
Forced : Нет
Текст #1
Идентификатор : 5
Формат : UTF-8
Идентификатор кодека : S_TEXT/UTF8
Идентификатор кодека/Информация : UTF-8 Plain Text
Продолжительность : 1 ч. 37 м.
Битрейт : 62 бит/сек
Count of elements : 1498
Размер потока : 44,3 Кбайт (0%)
Заголовок : Full
Язык : English
Default : Нет
Forced : Нет
Текст #2
Идентификатор : 6
Формат : UTF-8
Идентификатор кодека : S_TEXT/UTF8
Идентификатор кодека/Информация : UTF-8 Plain Text
Продолжительность : 1 ч. 38 м.
Битрейт : 67 бит/сек
Count of elements : 1704
Размер потока : 48,8 Кбайт (0%)
Заголовок : SDH
Язык : English
Default : Нет
Forced : Нет
Меню
00:00:00.000 : en:Chapter 01
00:03:59.906 : en:Chapter 02
00:07:50.220 : en:Chapter 03
00:14:23.071 : en:Chapter 04
00:18:36.574 : en:Chapter 05
00:23:29.992 : en:Chapter 06
00:27:39.449 : en:Chapter 07
00:32:51.261 : en:Chapter 08
00:38:16.586 : en:Chapter 09
00:43:58.177 : en:Chapter 10
00:47:32.433 : en:Chapter 11
00:54:25.721 : en:Chapter 12
00:57:55.305 : en:Chapter 13
01:02:06.806 : en:Chapter 14
01:06:10.884 : en:Chapter 15
01:11:01.549 : en:Chapter 16
01:17:48.247 : en:Chapter 17
01:23:16.783 : en:Chapter 18
01:31:48.294 : en:Chapter 19
01:35:52.705 : en:Chapter 20

Релиз от: Автор релиза:


_________________
Проголосуй за трекер Открытый торрент трекер - RUS-MEDIA.ORG

Проголосуй Открытый торрент трекер - RUS-MEDIA.ORG


Вернуться к началу
 Профиль Отправить личное сообщение  
 
   Похожие торренты   Автор   Торрент   Размер 
В этой теме нет новых непрочитанных сообщений. Папашина армия / Dad's Army [комедия, 2016] BDRip 1080p, Dub [Лицензия]

salma3

0 | 0

9.81 ГБ

В этой теме нет новых непрочитанных сообщений. Папашина армия / Dad's Army [Комедия, 2016] HDRip, Dub [Лицензия]

salma3

65 | 4

1.46 ГБ

В этой теме нет новых непрочитанных сообщений. Папашина армия / Dad's Army [комедия, военный, 2015] BDRip-AVC, Dub [Лицензия]

salma3

150 | 17

1.46 ГБ

В этой теме нет новых непрочитанных сообщений. Папашина армия / Dad's Army (комедия, военный, 2015) BDRip-AVC от HELLYWOOD | Лицензия

marya111

0 | 1

2.18 ГБ

В этой теме нет новых непрочитанных сообщений. Папашина армия / Dad's Army [комедия, 2016] WEB-DLRip, Mvo

salma3

895 | 30

1.37 ГБ

В этой теме нет новых непрочитанных сообщений. Зловещие мертвецы 3: Армия тьмы / Army of Darkness [ужасы, фэнтези, боевик, комедия, 1992] BDRip 720p, Dvo

salma3

18 | 7

6.64 ГБ

В этой теме нет новых непрочитанных сообщений. Человек – швейцарский нож / Swiss Army Man [Мюзикл, фэнтези, драма, 2016] BDRip 720p, dub [Лицензия]

salma3

0 | 0

6.05 ГБ


Начать новую тему Ответить на тему  [ 1 сообщение ] 




Для Мосгорсуда, Роскомнадзора и рекламодателей:: mosgorsud-torrent[собачка]yandex.ru
cron