Торрент файл
скачать торрент магнет ссылка Добавлен: 07 ноя 2016, 12:32
Размер: 7.95 ГБ
Сидеров: 21
Личеров: 9
Статус: (salma3)
Автор

СообщениеДобавлено: 07 ноя 2016, 12:32 

Не в сети
Супермодератор
Аватара пользователя
Дата регистрации:
15 фев 2012, 16:44
Возраст: 29
Спасибо: 7331 / 2147
Сообщения: 73810
Год выхода: 1983
Жанр: боевик, триллер, драма
Режиссер: Сэм Пекинпа
Выпущено: США
Продолжительность: 01:42:28
Перевод: Профессиональный (двухголосый, закадровый), Авторский (одноголосый, закадровый)

В ролях: Рутгер Хауэр, Джон Хёрт, Крэйг Т. Нельсон, Деннис Хоппер, Крис Сарандон, Мег Фостер, Хелен Шейвер, Кэсси Йэтс, Сэнди МакПик, Кристофер Старр
Описание:
Четыре преуспевающих американских семейства – тележурналиста Джона Таннера, адвоката Ричарда Тримейна, финансиста Джо Кардоуна и голливудского сценариста Берни Остермана – иногда собираются вместе на уик-энды, приятно проводя время. Однажды перед одним из таких уик-эндов Таннера вызывают в Вашингтон, где сотрудник ЦРУ Лоуренс Фоссет сообщает ему, что те, кого он считал своими друзьями, а именно Тримейны, Кардоуны и Остерманы, являются членами советской агентурной группы «Омега». Фоссет принуждает журналиста принять участие в операции по разоблачению вражеских агентов, и для Таннера начинается самый кошмарный уик-энд.

Файл
    Качество: BDRip 1080p (исходник Blu-Ray Remux)
    Формат: MKV
    Видео: 1918x1078, 9444 Кбит/сек, 23,976 кадр/сек, AVC, x264, High@L4.1, 16:9, 0.191 Бит/[Пиксели*Кадры]
    Аудио 1: AC-3, 192 Кбит/сек, 6 канала(ов), 48,0 КГц - Двухголосый закадровый, ТВ3 / Русский
    Аудио 2: AC-3, 192 Кбит/сек, 6 канала(ов), 48,0 КГц - Двухголосый закадровый, НТВ / Русский
    Аудио 3: AC-3, 640 Кбит/сек, 6 канала(ов), 48,0 КГц - Одноголосый закадровый, Ю.Живов / Русский
    Аудио 4: AC-3, 640 Кбит/сек, 6 канала(ов), 48,0 КГц - Оригинал / Английский
    Субтитры: Английские | Полные
    Форсированные субтитры: Нет
    Чаптеры (Главы): Есть



Автор Рипа: Группа:


Format : Matroska
Format version : Version 2
File size : 7.95 GiB
Duration : 1 h 42 min
Overall bit rate : 11.1 Mb/s
Movie name : The Osterman Weekend.(1983).BDRip.1080p.[envy]
Encoded date : UTC 2016-11-06 07:40:07
Writing application : mkvmerge v5.8.0 ('No Sleep / Pillow') built on Sep 2 2012 15:37:04
Writing library : libebml v1.2.3 + libmatroska v1.3.0
Video
ID : 1
Format : AVC
Format/Info : Advanced Video Codec
Format profile : High@L4.1
Format settings, CABAC : Yes
Format settings, ReFrames : 4 frames
Codec ID : V_MPEG4/ISO/AVC
Duration : 1 h 42 min
Bit rate : 9 444 kb/s
Width : 1 918 pixels
Height : 1 078 pixels
Display aspect ratio : 16:9
Frame rate mode : Constant
Frame rate : 23.976 (24000/1001) FPS
Color space : YUV
Chroma subsampling : 4:2:0
Bit depth : 8 bits
Scan type : Progressive
Bits/(Pixel*Frame) : 0.191
Stream size : 6.60 GiB (83%)
Title : The Osterman Weekend.(1983).BDRip.1080p.[envy]
Writing library : x264 core 148 r2721 72d53ab
Encoding settings : cabac=1 / ref=4 / deblock=1:-3:-3 / analyse=0x3:0x113 / me=umh / subme=11 / psy=1 / psy_rd=1.00:0.00 / mixed_ref=1 / me_range=32 / chroma_me=1 / trellis=2 / 8x8dct=1 / cqm=0 / deadzone=21,11 / fast_pskip=0 / chroma_qp_offset=-2 / threads=12 / lookahead_threads=1 / sliced_threads=0 / nr=0 / decimate=1 / interlaced=0 / bluray_compat=0 / constrained_intra=0 / bframes=6 / b_pyramid=2 / b_adapt=2 / b_bias=0 / direct=3 / weightb=1 / open_gop=0 / weightp=2 / keyint=240 / keyint_min=23 / scenecut=40 / intra_refresh=0 / rc=2pass / mbtree=0 / bitrate=9444 / ratetol=2.0 / qcomp=0.60 / qpmin=0 / qpmax=69 / qpstep=4 / cplxblur=20.0 / qblur=0.5 / ip_ratio=1.40 / pb_ratio=1.30 / aq=2:0.70
Language : English
Default : Yes
Forced : No
Audio #1
ID : 2
Format : AC-3
Format/Info : Audio Coding 3
Mode extension : CM (complete main)
Format settings, Endianness : Big
Codec ID : A_AC3
Duration : 1 h 42 min
Bit rate mode : Constant
Bit rate : 192 kb/s
Channel(s) : 2 channels
Channel positions : Front: L R
Sampling rate : 48.0 kHz
Frame rate : 31.250 FPS (1536 spf)
Compression mode : Lossy
Stream size : 141 MiB (2%)
Title : DVO ТВ3
Language : Russian
Default : Yes
Forced : No
Audio #2
ID : 3
Format : AC-3
Format/Info : Audio Coding 3
Mode extension : CM (complete main)
Format settings, Endianness : Big
Codec ID : A_AC3
Duration : 1 h 42 min
Bit rate mode : Constant
Bit rate : 192 kb/s
Channel(s) : 2 channels
Channel positions : Front: L R
Sampling rate : 48.0 kHz
Frame rate : 31.250 FPS (1536 spf)
Compression mode : Lossy
Stream size : 141 MiB (2%)
Title : DVO НТВ
Language : Russian
Default : No
Forced : No
Audio #3
ID : 4
Format : AC-3
Format/Info : Audio Coding 3
Mode extension : CM (complete main)
Format settings, Endianness : Big
Codec ID : A_AC3
Duration : 1 h 42 min
Bit rate mode : Constant
Bit rate : 640 kb/s
Channel(s) : 6 channels
Channel positions : Front: L C R, Side: L R, LFE
Sampling rate : 48.0 kHz
Frame rate : 31.250 FPS (1536 spf)
Compression mode : Lossy
Stream size : 469 MiB (6%)
Title : AVO Ю.Живов
Language : Russian
Default : No
Forced : No
Audio #4
ID : 5
Format : AC-3
Format/Info : Audio Coding 3
Mode extension : CM (complete main)
Format settings, Endianness : Big
Codec ID : A_AC3
Duration : 1 h 42 min
Bit rate mode : Constant
Bit rate : 640 kb/s
Channel(s) : 6 channels
Channel positions : Front: L C R, Side: L R, LFE
Sampling rate : 48.0 kHz
Frame rate : 31.250 FPS (1536 spf)
Compression mode : Lossy
Stream size : 469 MiB (6%)
Title : Eng
Language : English
Default : No
Forced : No
Text
ID : 6
Format : UTF-8
Codec ID : S_TEXT/UTF8
Codec ID/Info : UTF-8 Plain Text
Title : Eng full
Language : English
Default : No
Forced : No
Menu
00:00:00.000 : :Chapter 01
00:04:48.203 : :Chapter 02
00:08:33.929 : :Chapter 03
00:16:47.130 : :Chapter 04
00:26:19.536 : :Chapter 05
00:40:15.704 : :Chapter 06
00:55:31.411 : :Chapter 07
01:01:21.969 : :Chapter 08
01:12:49.198 : :Chapter 09
01:29:05.715 : :Chapter 10
01:35:37.604 : :Chapter 11
01:40:51.045 : :Chapter 12



_________________
Проголосуй за трекер Открытый торрент трекер - RUS-MEDIA.ORG

Проголосуй Открытый торрент трекер - RUS-MEDIA.ORG


Вернуться к началу
 Профиль Отправить личное сообщение  
 
   Похожие торренты   Автор   Торрент   Размер 
В этой теме нет новых непрочитанных сообщений. Уик-энд Остермана / The Osterman Weekend [боевик, триллер, драма, 1983] BDRip, Dvo [НТВ]

salma3

30 | 11

1.46 ГБ

В этой теме нет новых непрочитанных сообщений. На последнем дыхании / Breathless [боевик, триллер, драма, 1983] BDRip, Mvo

salma3

7 | 2

1.45 ГБ

В этой теме нет новых непрочитанных сообщений. За 10 минут до полуночи / 10 to Midnight [Боевик, Триллер, Драма, Криминал, 1983] BDRip-AVC, Mvo

salma3

25 | 5

2.58 ГБ

В этой теме нет новых непрочитанных сообщений. Кристина / Christine [ужасы, триллер, драма, детектив, 1983] BDRip-HEVC 1080p, Mvo

salma3

12 | 1

3.65 ГБ

В этой теме нет новых непрочитанных сообщений. На последнем дыхании / Breathless [боевик, триллер, драма, мелодрама, 1983] BDRip 720p, Mvo+Avo+Sub

salma3

38 | 53

4.53 ГБ

В этой теме нет новых непрочитанных сообщений. Победители и грешники / Qi mou miao ji: Wu fu xing [Комедия, боевик, 1983] BDRip 1080p, Dvo

salma3

1 | 2

6.48 ГБ

В этой теме нет новых непрочитанных сообщений. Одинокий волк МакКуэйд / Lone Wolf McQuade [Боевик, 1983] BDRip 1080p, Mvo

salma3

67 | 50

12.06 ГБ


Начать новую тему Ответить на тему  [ 1 сообщение ] 




Для Мосгорсуда, Роскомнадзора и рекламодателей:: mosgorsud-torrent[собачка]yandex.ru
cron