Торрент файл
скачать торрент магнет ссылка Добавлен: 04 ноя 2016, 02:38
Размер: 11.5 ГБ
Сидеров: 3
Личеров: 0
Автор

СообщениеДобавлено: 04 ноя 2016, 02:38 

Не в сети
Дата регистрации:
28 сен 2016, 18:10
Спасибо: 211 / 0
Сообщения: 1999
Порт назначения / Порт захода / Port of Call / Daap hyut cam mui
Страна: Гонконг
Производство: Mei Ah Films Production Co. Ltd.
Год выпуска: 2015
Жанр: драма, криминал, детектив
Продолжительность: 02:01:00
Режиссер: Филип Юн
Автор сценария: Филип Юн
В ролях: Аарон Квок, Джесси Ли, Патрик Там, Илэйн Цзинь, Майкл Нин, Мэгги Сиу, Ят-лонг Ли, Харриет Ен, Джеки Цай, Вивиан Люн
Описание: Гонконг, 2009 год. Полиция вызвана на место преступления, где явно произошло убийство, но тела нет. Расследующий дело инспектор Чон устанавливает личность вероятного убийцы, который, чуть позже, сам является в полицейский участок. Но расследовать это дело не так легко и просто, как кажется...

Перевод: Авторский (одноголосый) | Антон Карповский
Субтитры: английские

Качество: BDRip 1080p | исходник Port.of.Call.2015.Extended.Blu-ray.1080p.AVC.TrueHD7.1-MTeam
Формат: MKV
Видео кодек: AVC
Аудио кодек: DTS | AC3
Видео: 1920x1036 (1.85:1), 24.000 fps, MPEG-4 AVC ~11.5 Мbps avg
Аудио №1: 48.0 kHz, Digital Theater Systems, 3/2 (L,C,R,l,r) + LFE ch, ~1509 kbps | RUS
Аудио №2: 48.0 kHz, AC3 Dolby Digital, 3/2 (L,C,R,l,r) + LFE ch, ~640 kbps | CHI
Формат субтитров: UTF-8 Plain Text
Дата премьеры (мир): 6 апреля 2015ВНИМАНИЕ! Присутствует
ненормативная лексика



Релиз от: ylnian
Дополнительная информация: сборка дороги - rammzez
General
Уникальный идентификатор : 180578160849585232867591265001460750250 (0x87DA16B6E52B12C393E08162D5DC57AA)
Полное имя : Daap hyut cam mui.2015.BDRip.1080p-ylnian.mkv
Формат : Matroska
Версия формата : Version 4 / Version 2
Размер файла : 11,5 Гбайт
Продолжительность : 2 ч. 0 м.
Общий поток : 13,6 Мбит/сек
Название фильма : Daap hyut cam mui.2015.BDRip.1080p-ylnian
Дата кодирования : UTC 2016-10-30 12:23:05
Программа кодирования : mkvmerge v9.3.1 ('Mask Machine') 64bit
Библиотека кодирования : libebml v1.3.4 + libmatroska v1.4.5
Видео
Идентификатор : 1
Формат : AVC
Формат/Информация : Advanced Video Codec
Профиль формата : High@L4.1
Параметр CABAC формата : Да
Параметр ReFrames формата : 4 кадра
Идентификатор кодека : V_MPEG4/ISO/AVC
Продолжительность : 2 ч. 0 м.
Битрейт : 11,5 Мбит/сек
Ширина : 1920 пикселей
Высота : 1036 пикселей
Соотношение сторон : 1,85:1
Режим частоты кадров : Постоянный
Частота кадров : 24,000 кадра/сек
Цветовое пространство : YUV
Субдискретизация насыщенности : 4:2:0
Битовая глубина : 8 бит
Тип развёртки : Прогрессивная
Бит/(Пиксели*Кадры) : 0.240
Размер потока : 9,68 Гбайт (84%)
Заголовок : Daap hyut cam mui.2015.BDRip.1080p-ylnian
Библиотека кодирования : x264 core 148 r2638 7599210
Настройки программы : cabac=1 / ref=4 / deblock=1:-3:-3 / analyse=0x3:0x133 / me=umh / subme=11 / psy=1 / psy_rd=1.05:0.00 / mixed_ref=1 / me_range=48 / chroma_me=1 / trellis=2 / 8x8dct=1 / cqm=0 / deadzone=21,11 / fast_pskip=0 / chroma_qp_offset=-4 / threads=12 / lookahead_threads=3 / sliced_threads=0 / nr=0 / decimate=1 / interlaced=0 / bluray_compat=0 / constrained_intra=0 / bframes=10 / b_pyramid=2 / b_adapt=2 / b_bias=0 / direct=2 / weightb=1 / open_gop=0 / weightp=2 / keyint=240 / keyint_min=23 / scenecut=40 / intra_refresh=0 / rc_lookahead=60 / rc=crf / mbtree=0 / crf=18.3 / qcomp=0.60 / qpmin=0 / qpmax=69 / qpstep=4 / vbv_maxrate=62500 / vbv_bufsize=78125 / crf_max=0.0 / nal_hrd=none / filler=0 / ip_ratio=1.30 / pb_ratio=1.20 / aq=2:0.80
Язык : Chinese
Default : Да
Forced : Да
Аудио #1
Идентификатор : 2
Формат : DTS
Формат/Информация : Digital Theater Systems
Режим : 16
Параметр Endianness формата : Big
Идентификатор кодека : A_DTS
Продолжительность : 2 ч. 0 м.
Вид битрейта : Постоянный
Битрейт : 1509 Кбит/сек
Каналы : 6 каналов
Расположение каналов : Front: L C R, Side: L R, LFE
Частота : 48,0 КГц
Частота кадров : 93,750 кадра/сек (512 spf)
Битовая глубина : 16 бит
Метод сжатия : С потерями
Размер потока : 1,28 Гбайт (11%)
Заголовок : AVO (DTS 5.1 1509 kbps)
Язык : Russian
Default : Да
Forced : Да
Аудио #2
Идентификатор : 3
Формат : AC-3
Формат/Информация : Audio Coding 3
Расширение режима : CM (complete main)
Параметр Endianness формата : Big
Идентификатор кодека : A_AC3
Продолжительность : 2 ч. 0 м.
Вид битрейта : Постоянный
Битрейт : 640 Кбит/сек
Каналы : 6 каналов
Расположение каналов : Front: L C R, Side: L R, LFE
Частота : 48,0 КГц
Частота кадров : 31,250 кадров/сек (1536 spf)
Метод сжатия : С потерями
Размер потока : 554 Мбайт (5%)
Заголовок : AC3 5.1 640 kbps
Язык : Chinese
Default : Нет
Forced : Нет
Текст
Идентификатор : 4
Формат : UTF-8
Идентификатор кодека : S_TEXT/UTF8
Идентификатор кодека/Информация : UTF-8 Plain Text
Продолжительность : 1 ч. 57 м.
Битрейт : 39 бит/сек
Count of elements : 1479
Размер потока : 34,5 Кбайт (0%)
Язык : English
Default : Нет
Forced : Нет
Меню
00:00:00.000 : zh:00:00:00.000
00:05:36.250 : zh:00:05:36.250
00:16:58.208 : zh:00:16:58.208
00:24:19.583 : zh:00:24:19.583
00:31:41.417 : zh:00:31:41.417
00:38:56.083 : zh:00:38:56.083
00:44:27.875 : zh:00:44:27.875
00:51:35.667 : zh:00:51:35.667
00:56:30.375 : zh:00:56:30.375
01:03:59.417 : zh:01:03:59.417
01:08:40.333 : zh:01:08:40.333
01:12:37.375 : zh:01:12:37.375
01:18:44.708 : zh:01:18:44.708
01:25:12.792 : zh:01:25:12.792
01:33:14.000 : zh:01:33:14.000
01:39:55.542 : zh:01:39:55.542
01:47:07.167 : zh:01:47:07.167
01:54:59.333 : zh:01:54:59.333




реклама партнёра


Вернуться к началу
 Профиль Отправить личное сообщение  
 
   Похожие торренты   Автор   Торрент   Размер 
В этой теме нет новых непрочитанных сообщений. Порт назначения / Daap hyut cam mui (Драма, криминал, детектив, 2015) HDRip от MegaPeer | Режиссерская версия | A

marya111

42 | 0

745.77 МБ

В этой теме нет новых непрочитанных сообщений. Сицилиец / The Sicilian [боевик, драма, криминал, 1987] BDRip 1080p, Mvo [Режиссерская версия]

salma3

42 | 29

24.27 ГБ

В этой теме нет новых непрочитанных сообщений. Забирая жизни / Taking Lives [триллер, криминал, детектив, 2004] BDRip 720p, Dub [Режиссерская версия] [iPad]

salma3

0 | 0

1.64 ГБ

В этой теме нет новых непрочитанных сообщений. Газонокосильщик / The Lawnmower Man [Ужасы, фантастика, 1992] BDRip 1080p, Mvo [Режиссерская версия]

salma3

48 | 38

27.14 ГБ

В этой теме нет новых непрочитанных сообщений. Форсаж 7 / Furious 7 (Джеймс Ван) [боевик, триллер, криминал, 2015] BDRip 1080p, Dub+Sub [Театральная версия | BLUEBIRD]

Dracon

32 | 0

15.02 ГБ

В этой теме нет новых непрочитанных сообщений. Фелисити / Felicity [драма, мелодрама, 1978] BDRip 720p, Avo [режиссёрская версия]

salma3

122 | 18

2.11 ГБ

В этой теме нет новых непрочитанных сообщений. Инсайдеры / Nae-bu-ja-deul (У Мин-хо / Woo Min-ho) [2015г., Южная Корея, триллер, драма, криминал, WEB-DLRip] [Режиссерская версия] DVO

Alfredovich

23 | 7

2.1 ГБ


Начать новую тему Ответить на тему  [ 1 сообщение ] 




Для Мосгорсуда, Роскомнадзора и рекламодателей:: mosgorsud-torrent[собачка]yandex.ru