Торрент файл
скачать торрент магнет ссылка Добавлен: 04 ноя 2016, 02:37
Размер: 4.15 ГБ
Сидеров: 0
Личеров: 0
Автор

СообщениеДобавлено: 04 ноя 2016, 02:37 

Не в сети
Дата регистрации:
28 сен 2016, 18:10
Спасибо: 213 / 0
Сообщения: 1999
Оригинальное название: 31
Год выхода: 2016
Страна: США
Студия: Bow and Arrow Entertainment, PalmStar Media, Protagonist Pictures
Продолжительность: 01:43:10
Жанр: ужасы, триллер, ...
Режиссер: Роб Зомби
В ролях: Шери Мун Зомби, Джеффри Дэниэл, Филлипс, Лоуренс Хилтон-Джакобс, Мег Фостер, Кевин Джексон, Малкольм МакДауэлл, Джейн Карр, Джуди Гисон, Ричард Брэйк, Панчо Молер, ...
Перевод:
- Авторский (одноголосый, закадровый) Яроцкий Михаил
- Профессиональный (многоголосный, закадровый) VOX Records по заказу Вольга
- Субтитры
О фильме: История пяти людей, которые были похищены за пять дней до Хэллоуина и оказались пленниками в сотворенном человеком аду. Там им предстоит сыграть на выживание в жестокой игре под названием «31»…

Кодек: x264
Качество: WEBRip 1080p
Видео: 1908x788, 4489 kbps, 23,976 fps
Аудио #1: AC-3, 6 ch, 384 kbps (Rus) - AVO Яроцкий Михаил (kyberpunk)
Аудио #2: AC-3, 6 ch, 384 kbps (Rus) - MVO VOX Records
Аудио #3: AC-3, 6 ch, 384 kbps (Eng)
Субтитры: Русские, Английские
Перевод и озвучка Михаила Яроцкого доступны благодаря Переулку Переводмана и dikii.
Работа со звуком Переводман

Общее
Уникальный идентификатор : 203064704001374379602847516425163934589 (0x98C4D6E378AC1BF8AE90EDE11D3C8B7D)
Полное имя : 31 Праздник смерти (31) 2016 WEBRip 1080p.mkv
Формат : Matroska
Версия формата : Version 2
Размер файла : 4,15 Гбайт
Продолжительность : 1 ч. 43 м.
Общий поток : 5756 Кбит/сек
Дата кодирования : UTC 2016-10-26 09:35:23
Программа кодирования : mkvmerge v4.0.0 ('The Stars were mine') сборка от Jun 6 2010 16:18:42
Библиотека кодирования : libebml v1.0.0 + libmatroska v1.0.0
Видео
Идентификатор : 1
Формат : AVC
Формат/Информация : Advanced Video Codec
Профиль формата : High@L4
Параметр CABAC формата : Да
Параметр ReFrames формата : 5 кадров
Идентификатор кодека : V_MPEG4/ISO/AVC
Продолжительность : 1 ч. 43 м.
Битрейт : 4489 Кбит/сек
Ширина : 1908 пикселей
Высота : 788 пикселей
Соотношение сторон : 2,40:1
Режим частоты кадров : Постоянный
Частота кадров : 23,976 (24000/1001) кадра/сек
Цветовое пространство : YUV
Субдискретизация насыщенности : 4:2:0
Битовая глубина : 8 бит
Тип развёртки : Прогрессивная
Бит/(Пиксели*Кадры) : 0.125
Размер потока : 3,23 Гбайт (78%)
Язык : English
Default : Нет
Forced : Нет
Цветовой диапазон : Limited
Основные цвета : BT.709
Характеристики трансфера : BT.709
Коэффициенты матрицы : BT.709
Аудио #1
Идентификатор : 2
Формат : AC-3
Формат/Информация : Audio Coding 3
Расширение режима : CM (complete main)
Параметр Endianness формата : Big
Идентификатор кодека : A_AC3
Продолжительность : 1 ч. 43 м.
Вид битрейта : Постоянный
Битрейт : 384 Кбит/сек
Каналы : 6 каналов
Расположение каналов : Front: L C R, Side: L R, LFE
Частота : 48,0 КГц
Частота кадров : 31,250 кадров/сек (1536 spf)
Метод сжатия : С потерями
Размер потока : 283 Мбайт (7%)
Заголовок : AVO Яроцкий Михаил (kyberpunk)
Язык : Russian
Default : Нет
Forced : Нет
Аудио #2
Идентификатор : 3
Формат : AC-3
Формат/Информация : Audio Coding 3
Расширение режима : CM (complete main)
Параметр Endianness формата : Big
Идентификатор кодека : A_AC3
Продолжительность : 1 ч. 43 м.
Вид битрейта : Постоянный
Битрейт : 384 Кбит/сек
Каналы : 6 каналов
Расположение каналов : Front: L C R, Side: L R, LFE
Частота : 48,0 КГц
Частота кадров : 31,250 кадров/сек (1536 spf)
Метод сжатия : С потерями
Размер потока : 283 Мбайт (7%)
Заголовок : MVO VOX Records (по заказу Вольга)
Язык : Russian
Default : Нет
Forced : Нет
Аудио #3
Идентификатор : 4
Формат : AC-3
Формат/Информация : Audio Coding 3
Расширение режима : CM (complete main)
Параметр Endianness формата : Big
Идентификатор кодека : A_AC3
Продолжительность : 1 ч. 43 м.
Вид битрейта : Постоянный
Битрейт : 384 Кбит/сек
Каналы : 6 каналов
Расположение каналов : Front: L C R, Side: L R, LFE
Частота : 48,0 КГц
Частота кадров : 31,250 кадров/сек (1536 spf)
Метод сжатия : С потерями
Размер потока : 283 Мбайт (7%)
Язык : English
Default : Нет
Forced : Нет
Текст #1
Идентификатор : 5
Формат : UTF-8
Идентификатор кодека : S_TEXT/UTF8
Идентификатор кодека/Информация : UTF-8 Plain Text
Заголовок : BadBajo
Язык : Russian
Default : Нет
Forced : Нет
Текст #2
Идентификатор : 6
Формат : UTF-8
Идентификатор кодека : S_TEXT/UTF8
Идентификатор кодека/Информация : UTF-8 Plain Text
Язык : English
Default : Нет
Forced : Нет






реклама партнёра


Вернуться к началу
 Профиль Отправить личное сообщение  
 
   Похожие торренты   Автор   Торрент   Размер 
В этой теме нет новых непрочитанных сообщений. 31: Праздник смерти / 31 [ужасы, триллер, 2016] WEB-DLRip 1080p, mvo

marya111

237 | 13

3.38 ГБ

В этой теме нет новых непрочитанных сообщений. 31: Праздник смерти / 31 [ужасы, триллер, 2016] WEB-DLRip, mvo

marya111

0 | 0

1.37 ГБ

В этой теме нет новых непрочитанных сообщений. 31: Праздник смерти / 31 [ужасы, триллер, 2016] WEB-DLRip, avo

marya111

0 | 0

1.46 ГБ

В этой теме нет новых непрочитанных сообщений. 31: Праздник смерти / 31 [ужасы, триллер, 2016] WEB-DLRip, avo

marya111

0 | 0

757.6 МБ

В этой теме нет новых непрочитанных сообщений. 31: Праздник смерти / 31 [ужасы, триллер, 2016] HDRip, Dub [iTunes]

salma3

701 | 130

1.37 ГБ

В этой теме нет новых непрочитанных сообщений. 31: Праздник смерти / 31 [ужасы, триллер, 2016] BDRip 720p, Mvo [iTunes]

salma3

69 | 14

4.65 ГБ

В этой теме нет новых непрочитанных сообщений. 31: Праздник смерти / 31 (ужасы, триллер, 2016) BDRip от ExKinoRay | iTunes

marya111

296 | 35

1.41 ГБ


Начать новую тему Ответить на тему  [ 1 сообщение ] 




Для Мосгорсуда, Роскомнадзора и рекламодателей:: mosgorsud-torrent[собачка]yandex.ru
cron