Торрент файл
скачать торрент магнет ссылка Добавлен: 02 ноя 2016, 12:26
Размер: 9.09 ГБ
Сидеров: 107
Личеров: 69
Статус: (salma3)
Автор

СообщениеДобавлено: 02 ноя 2016, 12:26 

Не в сети
Супермодератор
Аватара пользователя
Дата регистрации:
15 фев 2012, 16:44
Возраст: 29
Спасибо: 7328 / 2147
Сообщения: 73276
Страна: Великобритания
Производство: BBC Films, Celador Films, Jonescompany Productions
Год выпуска: 2002
Жанр: триллер, драма, криминал
Продолжительность: 01:37:02
Режиссер: Стивен Фрирз
Автор сценария: Стивен Найт

В ролях: Чиветель Эджиофор, Одри Тоту, Серхи Лопес, Софи Оконедо, Бенедикт Вонг, Златко Бурич, Крисс Досанж, Исраель Адурамо, Йеми Аджибаде

Описание: Подпольный мир Лондона. Здесь всё продаётся и покупается. Молодой человек и девушка работают в одном отеле, очаге преступной деятельности. Они практически незнакомы до того момента, пока один из них не делает леденящее душу открытие. Герои не могут сообщить об этом ни коррумпированному боссу, ни полиции. Они будут счастливы, если им удастся остаться в живых...



Перевод: Профессиональный (дублированный) + Профессиональный (многоголосый) + Профессиональный (двухголосый) + Авторский (одноголосый)
Субтитры: русские (R5 + v2), английские

Качество: BDRip 1080p
Формат: МКV
Видео кодек: AVC
Аудио кодек: АС3 | DTS
Видео: 1920x1040 (1.85:1), 24.000 fps, MPEG-4 AVC ~10.4 Мbps avg
Аудио №1: 48.0 kHz, AC3 Dolby Digital, 3/2 (L,C,R,l,r) + LFE ch, ~384 kbps | DUB
Аудио №2: 48.0 kHz, AC3 Dolby Digital, 3/2 (L,C,R,l,r) + LFE ch, ~448 kbps | MVO / отдельным файлом
Аудио №3: 48.0 kHz, AC3 Dolby Digital, 3/2 (L,C,R,l,r) + LFE ch, ~384 kbps | DVO / DDV / отдельным файлом
Аудио №4: 48.0 kHz, Digital Theater Systems, 3/2 (L,C,R,l,r) + LFE ch, ~755 kbps | AVO / Евгений Рудой / отдельным файлом
Аудио №5: 48.0 kHz, Digital Theater Systems, 3/2 (L,C,R,l,r) + LFE ch, ~755 kbps | ENG / отдельным файлом
Формат субтитров: UTF-8 Plain Text
Бюджет: $10 000 000
Дата премьеры (мир): 5 сентября 2002
Дата премьеры (РФ): 31 июля 2003, «West»


Приз Венецианского кинофестиваля, 2002 год
» Премия Серджио Трассати
General
Уникальный идентификатор : 228199185855553681480884046311270393183 (0xABAD908532031A5EB256EDB0A064255F)
Полное имя : Grjaznye.prelesti.2002.x264.BDRip.1080p.mkv
Формат : Matroska
Версия формата : Version 2
Размер файла : 7,49 Гбайт
Продолжительность : 1 ч. 37 м.
Общий поток : 11,0 Мбит/сек
Название фильма : Грязные прелести / Dirty Pretty Things 2002 BDRip -- STarankov
Дата кодирования : UTC 2012-08-14 14:26:38
Программа кодирования : mkvmerge v5.1.0 ('And so it goes') built on Nov 28 2011 23:58:28
Библиотека кодирования : libebml v1.2.3 + libmatroska v1.3.0
Видео
Идентификатор : 1
Формат : AVC
Формат/Информация : Advanced Video Codec
Профиль формата : High@L4.1
Параметр CABAC формата : Да
Параметр ReFrames формата : 4 кадра
Идентификатор кодека : V_MPEG4/ISO/AVC
Продолжительность : 1 ч. 37 м.
Битрейт : 10,4 Мбит/сек
Ширина : 1920 пикселей
Высота : 1040 пикселей
Соотношение сторон : 1,85:1
Частота кадров : 24,000 кадра/сек
Цветовое пространство : YUV
Субдискретизация насыщенности : 4:2:0
Битовая глубина : 8 бит
Тип развёртки : Прогрессивная
Бит/(Пиксели*Кадры) : 0.218
Размер потока : 7,08 Гбайт (95%)
Библиотека кодирования : x264 core 125 r2200 999b753
Настройки программы : cabac=1 / ref=4 / deblock=1:0:0 / analyse=0x3:0x113 / me=umh / subme=9 / psy=1 / psy_rd=1.00:0.15 / mixed_ref=1 / me_range=24 / chroma_me=1 / trellis=2 / 8x8dct=1 / cqm=0 / deadzone=21,11 / fast_pskip=1 / chroma_qp_offset=-3 / threads=6 / lookahead_threads=1 / sliced_threads=0 / nr=0 / decimate=1 / interlaced=0 / bluray_compat=0 / constrained_intra=0 / bframes=10 / b_pyramid=2 / b_adapt=2 / b_bias=0 / direct=1 / weightb=1 / open_gop=0 / weightp=2 / keyint=230 / keyint_min=23 / scenecut=40 / intra_refresh=0 / rc=crf / mbtree=0 / crf=20.5 / qcomp=0.60 / qpmin=0 / qpmax=69 / qpstep=4 / ip_ratio=1.40 / pb_ratio=1.30 / aq=1:1.00
Язык : English
Default : Да
Forced : Нет
Аудио
Идентификатор : 2
Формат : AC-3
Формат/Информация : Audio Coding 3
Расширение режима : CM (complete main)
Параметр Endianness формата : Big
Идентификатор кодека : A_AC3
Продолжительность : 1 ч. 37 м.
Вид битрейта : Постоянный
Битрейт : 384 Кбит/сек
Каналы : 6 каналов
Расположение каналов : Front: L C R, Side: L R, LFE
Частота : 48,0 КГц
Битовая глубина : 16 бит
Метод сжатия : С потерями
Размер потока : 267 Мбайт (3%)
Заголовок : DUB
Язык : Russian
Default : Да
Forced : Нет
Текст #1
Идентификатор : 3
Формат : UTF-8
Идентификатор кодека : S_TEXT/UTF8
Идентификатор кодека/Информация : UTF-8 Plain Text
Заголовок : русский (вариант 1)
Язык : Russian
Default : Нет
Forced : Нет
Текст #2
Идентификатор : 4
Формат : UTF-8
Идентификатор кодека : S_TEXT/UTF8
Идентификатор кодека/Информация : UTF-8 Plain Text
Заголовок : русский (вариант 2)
Язык : Russian
Default : Нет
Forced : Нет
Текст #3
Идентификатор : 5
Формат : UTF-8
Идентификатор кодека : S_TEXT/UTF8
Идентификатор кодека/Информация : UTF-8 Plain Text
Заголовок : английский
Default : Нет
Forced : Нет


_________________
Проголосуй за трекер Открытый торрент трекер - RUS-MEDIA.ORG

Проголосуй Открытый торрент трекер - RUS-MEDIA.ORG


Вернуться к началу
 Профиль Отправить личное сообщение  
 
   Похожие торренты   Автор   Торрент   Размер 
В этой теме нет новых непрочитанных сообщений. Грязные прелести / Dirty Pretty Things [триллер, драма, криминал, 2002] BDRip-AVC, Dub

salma3

82 | 7

2.9 ГБ

В этой теме нет новых непрочитанных сообщений. Грязные копы / Dirty [криминал, триллер, 2016] WEBDLRip, Mvo

salma3

183 | 34

1.37 ГБ

В этой теме нет новых непрочитанных сообщений. Другая полиция: грязные нелегалы / Dias Police: Dirty Yellow Boys [триллер, криминал, 2016] HDRip, Dvo

salma3

76 | 13

1.46 ГБ

В этой теме нет новых непрочитанных сообщений. Dirty Talk 3 / Грязные Разговоры 3 (2016) WEB-DL

amadei

4 | 2

1.63 ГБ

В этой теме нет новых непрочитанных сообщений. What Happened Last Night / Что Случилось Прошлой Ночью (Pretty Dirty) [2017 г., Feature, Oral, Affairs, Love Triangles, All Sex, Cunnilingus, HDRip, 1080p]

max77777

0 | 1

4.79 ГБ

В этой теме нет новых непрочитанных сообщений. Грязные Куколки / The Dirty Dolls (2017) DVDRip

salma3

57 | 12

1.71 ГБ

В этой теме нет новых непрочитанных сообщений. Dirty Money / Грязные Деньги (2016) DVDRip

Dile-1

0 | 0

1.04 ГБ


Начать новую тему Ответить на тему  [ 1 сообщение ] 




Для Мосгорсуда, Роскомнадзора и рекламодателей:: mosgorsud-torrent[собачка]yandex.ru
cron