Торрент файл
скачать торрент магнет ссылка Добавлен: 29 окт 2016, 04:02
Размер: 2.71 ГБ
Сидеров: 809
Личеров: 60
Статус: (salma3)
Автор

СообщениеДобавлено: 29 окт 2016, 04:02 

Не в сети
Дата регистрации:
28 сен 2016, 18:10
Спасибо: 216 / 0
Сообщения: 1996
Год выпуска: 2016
Жанр: Фэнтези, комедия, семейный
Режиссер: Бэрри Зонненфельд

В ролях: Кевин Спейси, Дженнифер Гарнер, Робби Амелл, Шерил Хайнс, Марк Консуэлос, Малина Вайсман, Кристофер Уокен, Талита Бейтман, Тедди Сирс, Джей Пэттерсон

О фильме:
Том Бренд — миллиардер-трудоголик с чудинкой. Он с головой погружен в работу и немного выпал из семейной жизни — даже подарок дочери он покупает в последний момент. Ребекка мечтает о настоящем коте, и как бы Том ни презирал животных, он отправляется в зоомагазин, где выбирает самого роскошного кота по кличке Мистер Пушистые Штаны. В спешке на праздник дочери Том попадает в аварию, а очнувшись, обнаруживает себя в теле этого самого кота. Пока Том-человек отсыпается в больнице, Том-Пушистые Штаны вынужден на собственной шкуре испытать все прелести кошачьей жизни и вернуть любовь семьи, чтобы не остаться навсегда в роли питомца. Благо, жена и дочь принимают кота как родного. Но как заставить их разглядеть в Мистере Пушистые Штаны раскаявшегося отца семейства?



Страна: Франция, Китай
Студия: EuropaCorp, Fundamental Films, Transfilm
Продолжительность: 01:27:04
Перевод: Дублированный [звук с TS]
Файл
Кодек: MPEG-4-AVC
Качество: WEBRip (1080p)
Видео: 4066 Кбит/с, 1920x1036
Звук: Русский (AC3, 2 ch, 384 Кбит/с)
Субтитры: Китайские [Вшитые]
ПРИСУТСТВУЕТ РЕКЛАМА!
Семпл
Общее
Уникальный идентификатор : 203987795623198016592944931894681854683 (0x99769ED1BFEAC0C9BB48FA141EB2E2DB)
Полное имя : D:Nine.Lives.2016.Dt.WEBRip.1O8Op_KOSHARA.mkv
Формат : Matroska
Версия формата : Version 2
Размер файла : 2,71 Гбайт
Продолжительность : 1 ч. 27 м.
Режим общего битрейта : Переменный
Общий поток : 4452 Кбит/сек
Дата кодирования : UTC 2016-10-20 15:35:15
Программа кодирования : mkvmerge v8.3.0 ('Over the Horizon') 64bit
Библиотека кодирования : libebml v1.3.1 + libmatroska v1.4.2
Видео
Идентификатор : 1
Формат : AVC
Формат/Информация : Advanced Video Codec
Профиль формата : High@L4.1
Параметр CABAC формата : Да
Параметр ReFrames формата : 4 кадра
Идентификатор кодека : V_MPEG4/ISO/AVC
Продолжительность : 1 ч. 27 м.
Вид битрейта : Переменный
Битрейт : 4066 Кбит/сек
Максимальный битрейт : 5000 Кбит/сек
Ширина : 1920 пикселей
Высота : 1036 пикселей
Соотношение сторон : 1,85:1
Режим частоты кадров : Постоянный
Частота кадров : 24,000 кадра/сек
Стандарт вещания : Component
Цветовое пространство : YUV
Субдискретизация насыщенности : 4:2:0
Битовая глубина : 8 бит
Тип развёртки : Прогрессивная
Бит/(Пиксели*Кадры) : 0.085
Размер потока : 2,48 Гбайт (91%)
Default : Да
Forced : Нет
Цветовой диапазон : Limited
Основные цвета : BT.709
Характеристики трансфера : BT.709
Коэффициенты матрицы : BT.709
Аудио
Идентификатор : 2
Формат : AC-3
Формат/Информация : Audio Coding 3
Расширение режима : CM (complete main)
Параметр Endianness формата : Big
Идентификатор кодека : A_AC3
Продолжительность : 1 ч. 27 м.
Вид битрейта : Постоянный
Битрейт : 384 Кбит/сек
Каналы : 2 канала
Расположение каналов : Front: L R
Частота : 48,0 КГц
Частота кадров : 31,250 кадров/сек (1536 spf)
Метод сжатия : С потерями
Размер потока : 240 Мбайт (9%)
Default : Да
Forced : Нет






Вернуться к началу
 Профиль Отправить личное сообщение  
 
   Похожие торренты   Автор   Торрент   Размер 
В этой теме нет новых непрочитанных сообщений. Девять жизней / Nine Lives (Фэнтези, комедия, семейный, 2016) BDRip 1080p | iTunes

marya111

374 | 33

13.31 ГБ

В этой теме нет новых непрочитанных сообщений. Девять жизней / Nine Lives [фэнтези, комедия, семейный, 2016] HDRip, Dub [Line]

marya111

3217 | 151

1.37 ГБ

В этой теме нет новых непрочитанных сообщений. Девять жизней / Nine Lives (фэнтези, комедия, семейный, 2016) HDRip от Scarabey | iTunes

marya111

5106 | 309

1.45 ГБ

В этой теме нет новых непрочитанных сообщений. Девять жизней / Nine Lives [Фэнтези, комедия, семейный, 2016] BDRip 720p, Dub iTunes]

salma3

559 | 19

4.2 ГБ

В этой теме нет новых непрочитанных сообщений. Девять жизней / Nine Lives (2016) BDRip-AVC от HELLYWOOD | iTunes

marya111

1135 | 49

2.14 ГБ

В этой теме нет новых непрочитанных сообщений. Большой и добрый великан / The BFG [фэнтези, приключения, семейный, 2016] WEB-DL 1080p, Dub [чистый звук]

salma3

602 | 138

4.37 ГБ

В этой теме нет новых непрочитанных сообщений. Книга джунглей / The Jungle Book [фэнтези, драма, приключения, семейный, 2016] BDRip 1080p, Dub [чистый звук]

salma3

3342 | 87

7.14 ГБ


Начать новую тему Ответить на тему  [ 1 сообщение ] 




Для Мосгорсуда, Роскомнадзора и рекламодателей:: mosgorsud-torrent[собачка]yandex.ru
cron