Торрент файл
скачать торрент магнет ссылка Добавлен: 22 окт 2016, 03:19
Размер: 7.53 ГБ
Сидеров: 644
Личеров: 109
Статус: (salma3)
Автор

СообщениеДобавлено: 22 окт 2016, 03:19 

Не в сети
Дата регистрации:
28 сен 2016, 18:10
Спасибо: 216 / 0
Сообщения: 1996
✦ Год выхода: 2016
✦ Жанр: Драма, мелодрама, комедия
✦ Режиссер: Мэтт Росс

✦ В ролях: Вигго Мортенсен, Джордж МакКэй, Саманта Ислер, Анналиса Бассо, Николас Хэмилтон, Шри Крукс, Чарли Шотуэлл, Трин Миллер, Кэтрин Хан, Стив Зан


Описание фильма
Они говорят на нескольких языках, знают квантовую физику и разбираются в философии. Они умеют охотиться и обращаться с оружием. Они живут в лесу в полной гармонии с природой. Лишь стечение обстоятельств заставляет их покинуть родной дом и отправиться в большой город. Что будет, когда они столкнутся с цивилизацией, когда на них обрушится первая любовь и мир гаджетов и социальных сетей?



✦ Выпущено: США, Electric City Entertainment, ShivHans Pictures
✦ Продолжительность: 01:59:29
✦ Перевод: профессиональный (многоголосый, закадровый) -
iTunes

Информация о файле
✦ Формат:| MKV | x264 |
✦ Качество: BDRip 1080p
✦ Видео: X264/MPEG4-AVC | 1920x800 (2.40:1) | ~8008 kbps | 23.976 fps
✦ Аудио Rus: AC3 | 48 KHz | 5.1 (Front: L С R Side: L R) + LFE | ~384 kbps
✦ Аудио Eng: AC3 | 48 KHz | 5.1 (Front: L С R Side: L R) + LFE | ~640 kbps
✦ Субтитры: || английские (полные) |

x264 [info]: frame I:1226 Avg QP:15.43 size:206595
x264 [info]: frame P:42321 Avg QP:18.69 size: 78219
x264 [info]: frame B:128346 Avg QP:20.14 size: 28081
Общее
Уникальный идентификатор : 175196287606868812964685925193881867588 (0x83CD93E086D227DB81F8A08DAFE1D544)
Полное имя : X:ATorrentCaptain.Fantastic.(2016).BDRip1080p.(qqss44).mkv
Формат : Matroska
Версия формата : Version 2
Размер файла : 7,53 Гбайт
Продолжительность : 1 ч. 59 м.
Общий поток : 9024 Кбит/сек
Название фильма : Captain.Fantastic.(2016).BDRip1080p.(qqss44)
Дата кодирования : UTC 2016-10-18 07:52:47
Программа кодирования : mkvmerge v7.9.0 ('Birds') 64bit
Библиотека кодирования : libebml v1.3.1 + libmatroska v1.4.2
Видео
Идентификатор : 1
Формат : AVC
Формат/Информация : Advanced Video Codec
Профиль формата : High@L4.1
Параметр CABAC формата : Да
Параметр ReFrames формата : 5 кадров
Идентификатор кодека : V_MPEG4/ISO/AVC
Продолжительность : 1 ч. 59 м.
Битрейт : 8008 Кбит/сек
Ширина : 1920 пикселей
Высота : 800 пикселей
Соотношение сторон : 2,40:1
Режим частоты кадров : Постоянный
Частота кадров : 23,976 (24000/1001) кадра/сек
Цветовое пространство : YUV
Субдискретизация насыщенности : 4:2:0
Битовая глубина : 8 бит
Тип развёртки : Прогрессивная
Бит/(Пиксели*Кадры) : 0.217
Размер потока : 6,68 Гбайт (89%)
Заголовок : Captain.Fantastic.(2016)
Библиотека кодирования : x264 core 148 r2721kMod 72d53ab
Настройки программы : cabac=1 / ref=5 / deblock=1:-3:-3 / analyse=0x3:0x133 / me=umh / subme=11 / psy=1 / fade_compensate=0.00 / psy_rd=1.00:0.00 / mixed_ref=1 / me_range=32 / chroma_me=1 / trellis=2 / 8x8dct=1 / cqm=0 / deadzone=21,11 / fast_pskip=0 / chroma_qp_offset=-2 / threads=12 / lookahead_threads=3 / sliced_threads=0 / nr=0 / decimate=0 / interlaced=0 / bluray_compat=0 / constrained_intra=0 / fgo=0 / bframes=11 / b_pyramid=2 / b_adapt=2 / b_bias=0 / direct=3 / weightb=1 / open_gop=0 / weightp=2 / keyint=240 / keyint_min=23 / scenecut=40 / intra_refresh=0 / rc=2pass / mbtree=0 / bitrate=8008 / ratetol=1.0 / qcomp=0.60 / qpmin=0 / qpmax=69 / qpstep=4 / cplxblur=20.0 / qblur=0.5 / ip_ratio=1.40 / pb_ratio=1.30 / aq=3:0.80
Язык : English
Default : Да
Forced : Нет
Аудио #1
Идентификатор : 2
Формат : AC-3
Формат/Информация : Audio Coding 3
Расширение режима : CM (complete main)
Параметр Endianness формата : Big
Идентификатор кодека : A_AC3
Продолжительность : 1 ч. 59 м.
Вид битрейта : Постоянный
Битрейт : 384 Кбит/сек
Каналы : 6 каналов
Расположение каналов : Front: L C R, Side: L R, LFE
Частота : 48,0 КГц
Частота кадров : 31,250 кадров/сек (1536 spf)
Метод сжатия : С потерями
Размер потока : 328 Мбайт (4%)
Заголовок : MVO | DD5.1 @ 384 kbps
Язык : Russian
Default : Да
Forced : Нет
Аудио #2
Идентификатор : 3
Формат : AC-3
Формат/Информация : Audio Coding 3
Расширение режима : CM (complete main)
Параметр Endianness формата : Big
Идентификатор кодека : A_AC3
Продолжительность : 1 ч. 59 м.
Вид битрейта : Постоянный
Битрейт : 640 Кбит/сек
Каналы : 6 каналов
Расположение каналов : Front: L C R, Side: L R, LFE
Частота : 48,0 КГц
Частота кадров : 31,250 кадров/сек (1536 spf)
Метод сжатия : С потерями
Размер потока : 547 Мбайт (7%)
Заголовок : Original | DD5.1 @ 640 kbps
Язык : English
Default : Нет
Forced : Нет
Текст
Идентификатор : 4
Формат : UTF-8
Идентификатор кодека : S_TEXT/UTF8
Идентификатор кодека/Информация : UTF-8 Plain Text
Продолжительность : 1 ч. 51 м.
Битрейт : 47 бит/сек
Count of elements : 1324
Размер потока : 39,2 Кбайт (0%)
Заголовок : Full
Язык : English
Default : Нет
Forced : Нет
Меню
00:00:00.000 : en:00:00:00.000
00:05:14.272 : en:00:05:14.272
00:11:12.046 : en:00:11:12.046
00:17:34.220 : en:00:17:34.220
00:25:20.728 : en:00:25:20.728
00:31:37.187 : en:00:31:37.187
00:37:41.509 : en:00:37:41.509
00:40:25.548 : en:00:40:25.548
00:46:10.601 : en:00:46:10.601
00:54:03.449 : en:00:54:03.449
00:59:34.696 : en:00:59:34.696
01:08:21.431 : en:01:08:21.431
01:14:08.486 : en:01:14:08.486
01:20:18.647 : en:01:20:18.647
01:24:30.774 : en:01:24:30.774
01:30:19.331 : en:01:30:19.331
01:36:52.807 : en:01:36:52.807
01:43:03.719 : en:01:43:03.719
01:48:23.163 : en:01:48:23.163
01:52:47.344 : en:01:52:47.344

[/font] Релиз от:



Вернуться к началу
 Профиль Отправить личное сообщение  
 
   Похожие торренты   Автор   Торрент   Размер 
В этой теме нет новых непрочитанных сообщений. Капитан Фантастик / Captain Fantastic [Драма, мелодрама, комедия, 2016] BDRip 1080p, Mvo [iTunes]

salma3

256 | 162

13.99 ГБ

В этой теме нет новых непрочитанных сообщений. Капитан Фантастик / Captain Fantastic [драма, мелодрама, комедия, 2016] BDRip, Mvo [iTunes]

salma3

350 | 27

1.41 ГБ

В этой теме нет новых непрочитанных сообщений. Капитан Фантастик / Captain Fantastic [драма, мелодрама, комедия, 2016] WEB-DL 1080p, Mvo [iTunes]

salma3

1133 | 36

4.09 ГБ

В этой теме нет новых непрочитанных сообщений. Капитан Фантастик / Captain Fantastic [драма, мелодрама, комедия, 2016] HDRip, Mvo [iTunes]

salma3

551 | 154

1.45 ГБ

В этой теме нет новых непрочитанных сообщений. Капитан Фантастик / Captain Fantastic [драма, мелодрама, комедия, 2016] HDRip, Mvo [iTunes]

salma3

1007 | 135

2.18 ГБ

В этой теме нет новых непрочитанных сообщений. Капитан Фантастик / Captain Fantastic [драма, мелодрама, комедия, 2016] WEB-DLRip-AVC, Mvo

salma3

753 | 36

1.3 ГБ

В этой теме нет новых непрочитанных сообщений. Капитан Фантастик / Captain Fantastic [драма, мелодрама, комедия, 2016] WEB-DLRip 720p, Mvo

salma3

15 | 8

4.14 ГБ


Начать новую тему Ответить на тему  [ 1 сообщение ] 




Для Мосгорсуда, Роскомнадзора и рекламодателей:: mosgorsud-torrent[собачка]yandex.ru
cron