Торрент файл
скачать торрент магнет ссылка Добавлен: 18 окт 2016, 12:30
Размер: 6.47 ГБ
Сидеров: 42
Личеров: 16
Статус: (salma3)
Автор

СообщениеДобавлено: 18 окт 2016, 12:30 

Не в сети
Супермодератор
Аватара пользователя
Дата регистрации:
15 фев 2012, 16:44
Возраст: 28
Спасибо: 6593 / 2145
Сообщения: 44239
Год выхода: 1988
Жанр: триллер, криминал
Режиссер: Эрик Ред

В ролях: Рой Шайдер, Адам Болдуин, Харли Кросс, Купер Хукаби, Сюзанн Савой, Марко Перелья, Том Кампителли, Энди Гилл, Фрэнк Бейтс, Джеймс Джетер

О фильме:
Девятилетний Тревис случайно стал свидетелем убийства. По законам преступного мира он, разумеется, должен быть ликвидирован. Однако, мальчугану везет — босс мафии решает пока лишь похитить его и доставить из Оклахомы в Хьюстон. Провести операцию похищения и транспортировки должны профессиональные убийцы Коэн и Тэйт, роли которых исполняют голливудские звезды Рой Шайдер и Адам Болдуин. Отношения между гангстерами настолько сложны, что парнишка сумеет этим воспользоваться.



Страна: США
Продолжительность: 01:25:42
Перевод: Профессиональный (многоголосый, закадровый) + Авторский (одноголосый, закадровый) А.Гаврилов

Релиз:

Файл
Формат: Matroska
Видео: 1280x720 at 23.976 fps, x264@L4.1, ~9062 kbps avg
Аудио#1: Russian: 48 kHz, AC3, 2/0 (L,R) ch, ~192 kbps avg |Многоголосый закадровый|
Аудио#2: Russian: 48 kHz, AC3, 3/2 (L,C,R,l,r) + LFE ch, ~640 kbps avg |Авторский, А.Гаврилов (ранний)|
Аудио#3: Russian: 48 kHz, AC3, 2/0 (L,R) ch, ~192 kbps avg |Авторский, А.Гаврилов (поздний)|
Аудио#4: English: 48 kHz, AC3, 3/2 (L,C,R,l,r) + LFE ch, ~640 kbps avg
Аудио#5: English: 48 kHz, AAC, 2/0 (L,R) ch, ~75 kbps avg |Commentary with Eric Red|
Субтитры: None
***Сохранены оригинальные главы как на Blu-ray.
***Видеоряд - SbR!
Общее
Уникальный идентификатор : 211089332507723743122360022771044430334 (0x9ECE539ECAECA9CEAB9981E6962FB1FE)
Полное имя : Cohen.and.Tate.1988.3xRus.Eng.HDCLUB-SbR.mkv
Формат : Matroska
Версия формата : Version 4 / Version 2
Размер файла : 6,47 Гбайт
Продолжительность : 1 ч. 25 м.
Общий поток : 10,8 Мбит/сек
Дата кодирования : UTC 2016-10-16 07:29:57
Программа кодирования : mkvmerge v9.4.2 ('So High') 64bit
Библиотека кодирования : libebml v1.3.4 + libmatroska v1.4.5
Attachment : Yes
Видео
Идентификатор : 1
Формат : AVC
Формат/Информация : Advanced Video Codec
Профиль формата : High@L4.1
Параметр CABAC формата : Да
Параметр ReFrames формата : 9 кадров
Идентификатор кодека : V_MPEG4/ISO/AVC
Продолжительность : 1 ч. 25 м.
Ширина : 1280 пикселей
Высота : 720 пикселей
Соотношение сторон : 16:9
Режим частоты кадров : Постоянный
Частота кадров : 23,976 кадра/сек
Цветовое пространство : YUV
Субдискретизация насыщенности : 4:2:0
Битовая глубина : 8 бит
Тип развёртки : Прогрессивная
Библиотека кодирования : x264 core 148 r2721kMod 72d53ab
Настройки программы : cabac=1 / ref=9 / deblock=1:-3:-3 / analyse=0x3:0x133 / me=umh / subme=10 / psy=1 / fade_compensate=0.00 / psy_rd=1.10:0.05 / mixed_ref=1 / me_range=48 / chroma_me=1 / trellis=2 / 8x8dct=1 / cqm=0 / deadzone=21,11 / fast_pskip=0 / chroma_qp_offset=-3 / threads=6 / lookahead_threads=1 / sliced_threads=0 / nr=0 / decimate=1 / interlaced=0 / bluray_compat=0 / constrained_intra=0 / fgo=0 / bframes=10 / b_pyramid=2 / b_adapt=2 / b_bias=0 / direct=3 / weightb=1 / open_gop=0 / weightp=2 / keyint=250 / keyint_min=23 / scenecut=40 / intra_refresh=0 / rc_lookahead=120 / rc=crf / mbtree=0 / crf=17.5000 / qcomp=0.60 / qpmin=0 / qpmax=69 / qpstep=4 / vbv_maxrate=62500 / vbv_bufsize=78125 / crf_max=0.0 / nal_hrd=none / filler=0 / ip_ratio=1.30 / pb_ratio=1.20 / aq=1:0.65
Язык : English
Default : Да
Forced : Нет
Основные цвета : BT.709
Характеристики трансфера : BT.709
Коэффициенты матрицы : BT.709
Аудио #1
Идентификатор : 2
Формат : AC-3
Формат/Информация : Audio Coding 3
Расширение режима : CM (complete main)
Параметр Endianness формата : Big
Идентификатор кодека : A_AC3
Продолжительность : 1 ч. 25 м.
Вид битрейта : Постоянный
Битрейт : 192 Кбит/сек
Каналы : 2 канала
Расположение каналов : Front: L R
Частота : 48,0 КГц
Битовая глубина : 16 бит
Метод сжатия : С потерями
Размер потока : 118 Мбайт (2%)
Заголовок : Многоголосый закадровый
Язык : Russian
Default : Да
Forced : Нет
Аудио #2
Идентификатор : 3
Формат : AC-3
Формат/Информация : Audio Coding 3
Расширение режима : CM (complete main)
Параметр Endianness формата : Big
Идентификатор кодека : A_AC3
Продолжительность : 1 ч. 25 м.
Вид битрейта : Постоянный
Битрейт : 640 Кбит/сек
Каналы : 6 каналов
Расположение каналов : Front: L C R, Side: L R, LFE
Частота : 48,0 КГц
Битовая глубина : 16 бит
Метод сжатия : С потерями
Размер потока : 392 Мбайт (6%)
Заголовок : Одноголосый закадровый, А.Гаврилов-ранний
Язык : Russian
Default : Нет
Forced : Нет
Аудио #3
Идентификатор : 4
Формат : AC-3
Формат/Информация : Audio Coding 3
Расширение режима : CM (complete main)
Параметр Endianness формата : Big
Идентификатор кодека : A_AC3
Продолжительность : 1 ч. 25 м.
Вид битрейта : Постоянный
Битрейт : 192 Кбит/сек
Каналы : 2 канала
Расположение каналов : Front: L R
Частота : 48,0 КГц
Битовая глубина : 16 бит
Метод сжатия : С потерями
Размер потока : 118 Мбайт (2%)
Заголовок : Одноголосый закадровый, А.Гаврилов-поздний
Язык : Russian
Default : Нет
Forced : Нет
Аудио #4
Идентификатор : 5
Формат : AC-3
Формат/Информация : Audio Coding 3
Расширение режима : CM (complete main)
Параметр Endianness формата : Big
Идентификатор кодека : A_AC3
Продолжительность : 1 ч. 25 м.
Вид битрейта : Постоянный
Битрейт : 640 Кбит/сек
Каналы : 6 каналов
Расположение каналов : Front: L C R, Side: L R, LFE
Частота : 48,0 КГц
Битовая глубина : 16 бит
Метод сжатия : С потерями
Размер потока : 392 Мбайт (6%)
Язык : English
Default : Нет
Forced : Нет
Аудио #5
Идентификатор : 6
Формат : AAC
Формат/Информация : Advanced Audio Codec
Профиль формата : LC
Идентификатор кодека : A_AAC
Продолжительность : 1 ч. 25 м.
Каналы : 2 канала
Расположение каналов : Front: L R
Частота : 48,0 КГц
Метод сжатия : С потерями
Задержка видео : 9 мс.
Заголовок : Commentary
Язык : English
Default : Нет
Forced : Нет
Меню
00:00:00.000 : en:00:00:00.000
00:07:26.070 : en:00:07:26.070
00:12:13.357 : en:00:12:13.357
00:22:52.996 : en:00:22:52.996
00:28:58.361 : en:00:28:58.361
00:37:18.861 : en:00:37:18.861
00:42:01.143 : en:00:42:01.143
00:48:52.929 : en:00:48:52.929
00:57:19.436 : en:00:57:19.436
01:05:07.528 : en:01:05:07.528
01:09:39.175 : en:01:09:39.175
01:19:58.793 : en:01:19:58.793
01:23:30.630 : en:01:23:30.630


_________________
Проголосуй за трекер Открытый торрент трекер - RUS-MEDIA.ORG

Проголосуй Открытый торрент трекер - RUS-MEDIA.ORG



реклама партнёра


Вернуться к началу
 Профиль Отправить личное сообщение  
 
   Похожие торренты   Автор   Торрент   Размер 
В этой теме нет новых непрочитанных сообщений. Коэн и Тейт / Cohen and Tate [Триллер, криминал, 1988] BDRemux 1080p, Mvo+Avo

salma3

11 | 5

24.21 ГБ

В этой теме нет новых непрочитанных сообщений. Коэн и Тейт / Cohen and Tate [Триллер, криминал, 1989] DVDRip, Mvo+Avo

salma3

25 | 3

1.47 ГБ

В этой теме нет новых непрочитанных сообщений. Адвокат для убийцы / Criminal Law [триллер, криминал. 1988] BDRip 720p, 2Mvo+Dvo+Sub

salma3

16 | 3

8.57 ГБ

В этой теме нет новых непрочитанных сообщений. Джек-потрошитель / Jack the Ripper [триллер, драма, криминал, 1988] BDRip 720p, Mvo

salma3

90 | 32

6.93 ГБ

В этой теме нет новых непрочитанных сообщений. Посланник смерти / Messenger of Death [боевик, триллер, криминал, 1988] BDRip 720p, Mvo

salma3

22 | 27

6.35 ГБ

В этой теме нет новых непрочитанных сообщений. Молодые стрелки / Young Guns [Боевик, Триллер, Вестерн, Криминал, 1988] BDRip 720p, Dvo+Avo

salma3

0 | 0

5.18 ГБ

В этой теме нет новых непрочитанных сообщений. Поклонник / The Boy Next Door (Роб Коэн) [Триллер, 2015] BDRip 720p, Dub [Лицензия]

Dracon

505 | 24

4.81 ГБ


Начать новую тему Ответить на тему  [ 1 сообщение ] 




Для Мосгорсуда, Роскомнадзора и рекламодателей:: mosgorsud-torrent[собачка]yandex.ru