Торрент файл
скачать торрент магнет ссылка Добавлен: 16 окт 2016, 11:59
Размер: 5.98 ГБ
Сидеров: 64
Личеров: 7
Статус: (salma3)
Автор

СообщениеДобавлено: 16 окт 2016, 11:59 

Не в сети
Супермодератор
Аватара пользователя
Дата регистрации:
15 фев 2012, 16:44
Возраст: 28
Спасибо: 7163 / 2147
Сообщения: 61793
Год выхода: 1992
Жанр: Боевик, боевые искусства
Режиссер: Цуй Харк

В ролях: Джет Ли, Юэнь Ва, Кристал Квок, Джерри Тримбл, Энн Рикетс, Рубен Гонсалес, Гай Фадаллон, Дерек Аннансиэйшн, Генри Пензи, Майкл Бурк

О фильме:
Дядя Так прославлен своим искусством традиционной китайской медицины. Как эксперт боевых искусств он также обучает молодёжь мастерству самозащиты. Один из его учеников, Джонни, мечтает монополизировать преподавание кунг-фу в США. С этой целью он пытается убить Дядю Така. Джет, лучший ученик Дяди Така из Китая, приезжает в Лос-Анджелес чтобы разыскать своего учителя. Джонни и его люди не оставляют китайцев в покое, и тем приходится драться не на жизнь, а на смерть.

Страна: Гонконг
Продолжительность: 01:32:24
Перевод: Авторский одноголосый закадровый (Андрей Дольский)

Файл
Кодек: x264, AVC
Качество: BDRip 1080p
Видео: 1920х1016, 8888 kbps, 23,976 fps
Звук: AC-3, 384 kbps, 48 KHz, 6 channels
Сохранены оригинальные чаптеры (как на Blu-Ray)
General
Unique ID : 236749352910790590138254681947844969964 (0xB21C444D9028AF98950329AAAEA905EC)
Complete name : Мастер [Long hang tian xia, 1992] 1080p.mkv
Format : Matroska
Format version : Version 2
File size : 5.98 GiB
Duration : 1 h 32 min
Overall bit rate : 9 270 kb/s
Encoded date : UTC 2016-10-15 13:50:39
Writing application : mkvmerge v4.2.0 ('No Talking') сборка от Jul 28 2010 18:38:23
Writing library : libebml v1.0.0 + libmatroska v1.0.0
Video
ID : 1
Format : AVC
Format/Info : Advanced Video Codec
Format profile : High@L4.1
Format settings, CABAC : Yes
Format settings, ReFrames : 4 frames
Muxing mode : Header stripping
Codec ID : V_MPEG4/ISO/AVC
Duration : 1 h 32 min
Bit rate : 8 888 kb/s
Width : 1 920 pixels
Height : 1 016 pixels
Display aspect ratio : 1.890
Frame rate mode : Constant
Frame rate : 23.976 (24000/1001) FPS
Color space : YUV
Chroma subsampling : 4:2:0
Bit depth : 8 bits
Scan type : Progressive
Bits/(Pixel*Frame) : 0.190
Stream size : 5.62 GiB (94%)
Title : The Master (1989)
Writing library : x264 core 148 r2638 7599210
Encoding settings : cabac=1 / ref=4 / deblock=1:-1:-1 / analyse=0x3:0x133 / me=umh / subme=9 / psy=1 / psy_rd=1.00:0.15 / mixed_ref=1 / me_range=16 / chroma_me=1 / trellis=2 / 8x8dct=1 / cqm=0 / deadzone=21,11 / fast_pskip=1 / chroma_qp_offset=-3 / threads=6 / lookahead_threads=1 / sliced_threads=0 / nr=0 / decimate=1 / interlaced=0 / bluray_compat=0 / constrained_intra=0 / bframes=3 / b_pyramid=2 / b_adapt=2 / b_bias=0 / direct=3 / weightb=1 / open_gop=0 / weightp=2 / keyint=240 / keyint_min=23 / scenecut=40 / intra_refresh=0 / rc_lookahead=60 / rc=2pass / mbtree=1 / bitrate=8888 / ratetol=1.0 / qcomp=0.60 / qpmin=0 / qpmax=51 / qpstep=4 / cplxblur=20.0 / qblur=0.5 / vbv_maxrate=62500 / vbv_bufsize=78125 / nal_hrd=none / filler=0 / ip_ratio=1.40 / aq=1:1.00
Default : Yes
Forced : No
Audio
ID : 2
Format : AC-3
Format/Info : Audio Coding 3
Mode extension : CM (complete main)
Format settings, Endianness : Big
Muxing mode : Header stripping
Codec ID : A_AC3
Duration : 1 h 32 min
Bit rate mode : Constant
Bit rate : 384 kb/s
Channel(s) : 6 channels
Channel positions : Front: L C R, Side: L R, LFE
Sampling rate : 48.0 kHz
Frame rate : 31.250 FPS (1536 spf)
Compression mode : Lossy
Stream size : 254 MiB (4%)
Title : Авторский (Андрей Дольский)
Language : Russian
Default : Yes
Forced : No
Menu
00:00:00.000 : :Chapter 01
00:04:22.220 : :Chapter 02
00:08:55.230 : :Chapter 03
00:15:15.150 : :Chapter 04
00:22:59.190 : :Chapter 05
00:32:12.000 : :Chapter 06
00:40:58.060 : :Chapter 07
00:47:29.100 : :Chapter 08
00:56:19.010 : :Chapter 09
01:06:02.050 : :Chapter 10
01:13:42.220 : :Chapter 11
01:19:52.030 : :Chapter 12
01:26:37.070 : :Chapter 13
01:30:24.110 : :Chapter 14


_________________
Проголосуй за трекер Открытый торрент трекер - RUS-MEDIA.ORG

Проголосуй Открытый торрент трекер - RUS-MEDIA.ORG


Вернуться к началу
 Профиль Отправить личное сообщение  
 
   Похожие торренты   Автор   Торрент   Размер 
В этой теме нет новых непрочитанных сообщений. Бесстрашная гиена 2 / Long teng hu yue [Боевик, боевые искусства, комедия, 1983] BDRip 1080p, Mvo

salma3

13 | 7

5.85 ГБ

В этой теме нет новых непрочитанных сообщений. Легенда о волке / Большой босс 2 / Chin Long Chuen Suet [Боевик, боевые искусства, 1997] BDRip 1080p, Avo

salma3

77 | 9

5.42 ГБ

В этой теме нет новых непрочитанных сообщений. Сильнейший удар: Бой до смерти / Shootfighter: Fight to the Death [Боевик, боевые искусства, 1992] BDRip 1080p, Dvo

salma3

82 | 25

7.06 ГБ

В этой теме нет новых непрочитанных сообщений. Мой самурай / My Samurai [Боевик, боевые искусства, 1992] DVDRip, Avo

salma3

1 | 0

1.45 ГБ

В этой теме нет новых непрочитанных сообщений. Легенда / Fong Sai Yuk [Боевик, боевые искусства, 1993] BDRip 1080p, Mvo

salma3

42 | 7

6.07 ГБ

В этой теме нет новых непрочитанных сообщений. Рука смерти / Shao Lin men [Боевик, боевые искусства, 1976] BDRip 1080p, Mvo

salma3

13 | 8

6.57 ГБ

В этой теме нет новых непрочитанных сообщений. Два воина / Tai ji: Zhang San Feng [Боевик, боевые искусства, 1993] BDRip 1080p, Mvo

salma3

65 | 24

6.11 ГБ


Начать новую тему Ответить на тему  [ 1 сообщение ] 




Для Мосгорсуда, Роскомнадзора и рекламодателей:: mosgorsud-torrent[собачка]yandex.ru
cron