Торрент файл
скачать торрент магнет ссылка Добавлен: 07 окт 2016, 01:32
Размер: 4.73 ГБ
Сидеров: 844
Личеров: 72
Статус: (salma3)
Автор

СообщениеДобавлено: 07 окт 2016, 01:32 

Не в сети
Дата регистрации:
28 сен 2016, 18:10
Спасибо: 216 / 0
Сообщения: 1996
Год выпуска: 2016
Страна: США
Жанр: фэнтези, драма, мелодрама, комедия, приключения
Продолжительность: 01:37:23
Перевод: Профессиональный (полное дублирование) [iTunes]
Субтитры: нет
Режиссер: Дэн Кван / Dan Kwan, Дэниэл Шайнерт / Daniel Scheinert

В ролях: Пол Дано, Дэниэл Рэдклифф, Мэри Элизабет Уинстэд, Антония Риберо, Тимоти Йолих, Ричард Гросс, Марика Кастил, Энди Халл, Аарон Маршалл, Шейн Каррут

Описание: Оказавшись на необитаемом острове, Хэнк уже был готов потерять всякую надежду, но все меняется, когда на берегу он находит труп по имени Мэнни.
Многофункциональность Мэнни поможет Хэнку выжить в диких условиях и заново обрести радость жизни. Вместе они отправятся в эпическое приключение, которое вернет Хэнка к девушке его мечты.

Качество видео: BDRip 720p (VietHD)
Формат видео: MKV
Видео: 1280х536, 23.976 fps, AVC ~6434 kbps avg
Аудио: 48 kHz, AC3 Dolby Digital, 3/2 (L,C,R,l,r) + LFE ch, ~384.00 kbps avg
Релиз от:



Swiss.Army.Man.2016.720p_BDRip__[scarabey.org].mkv
Формат : Matroska
Версия формата : Version 4 / Version 2
Размер файла : 4,73 Гбайт
Продолжительность : 1 ч. 37 м.
Общий поток : 6957 Кбит/сек
Дата кодирования : UTC 2016-09-29 20:38:24
Программа кодирования : mkvmerge v6.1.0 ('Old Devil') built on Mar 4 2013 09:10:42
Библиотека кодирования : libebml v1.3.0 + libmatroska v1.4.0
Видео
Идентификатор : 1
Формат : AVC
Формат/Информация : Advanced Video Codec
Профиль формата : High@L4.1
Параметр CABAC формата : Да
Параметр ReFrames формата : 12 кадров
Идентификатор кодека : V_MPEG4/ISO/AVC
Продолжительность : 1 ч. 37 м.
Битрейт : 6434 Кбит/сек
Ширина : 1280 пикселей
Высота : 534 пикселя
Соотношение сторон : 2,40:1
Соотношение сторон в оригинале : 2,40:1
Режим частоты кадров : Постоянный
Частота кадров : 23,976 (24000/1001) кадра/сек
Цветовое пространство : YUV
Субдискретизация насыщенности : 4:2:0
Битовая глубина : 8 бит
Тип развёртки : Прогрессивная
Бит/(Пиксели*Кадры) : 0.393
Размер потока : 4,38 Гбайт (92%)
Заголовок : English
Библиотека кодирования : x264 core 148 r2705.16 d50a22e VietHD_Custom_64
Настройки программы : cabac=1 / ref=12 / deblock=1:-3:-3 / analyse=0x3:0x133 / me=umh / subme=10 / psy=1 / fade_compensate=0.00 / psy_rd=1.10:0.00 / mixed_ref=1 / me_range=24 / chroma_me=1 / trellis=2 / 8x8dct=1 / cqm=0 / deadzone=21,11 / fast_pskip=0 / chroma_qp_offset=-2 / threads=12 / lookahead_threads=3 / sliced_threads=0 / nr=0 / decimate=0 / interlaced=0 / bluray_compat=0 / constrained_intra=0 / fgo=0 / bframes=10 / b_pyramid=2 / b_adapt=2 / b_bias=0 / direct=3 / weightb=1 / open_gop=0 / weightp=2 / keyint=250 / keyint_min=23 / scenecut=40 / intra_refresh=0 / rc_lookahead=60 / rc=crf / mbtree=0 / crf=17.5000 / qcomp=0.65 / qpmin=0:0:0 / qpmax=69:69:69 / qpstep=4 / vbv_maxrate=62500 / vbv_bufsize=78125 / crf_max=0.0 / nal_hrd=none / filler=0 / ip_ratio=1.30 / pb_ratio=1.20 / aq=3:0.70 / aq-sensitivity=10.00 / aq-factor=1.00:1.00:1.00 / aq2=0 / aq3=0 / zones=41,189,crf=10.6/20971,34606,crf=16.2/76482,77177,crf=16.2/77980,83369,crf=16.2/87477,89512,crf=16.2/91529,110306,crf=16.2/131766,140092,crf=25
Язык : English
Default : Да
Forced : Нет
Цветовой диапазон : Limited
Коэффициенты матрицы : BT.709
Аудио
Идентификатор : 2
Формат : AC-3
Формат/Информация : Audio Coding 3
Расширение режима : CM (complete main)
Параметр Endianness формата : Big
Идентификатор кодека : A_AC3
Продолжительность : 1 ч. 37 м.
Вид битрейта : Постоянный
Битрейт : 384 Кбит/сек
Каналы : 6 каналов
Расположение каналов : Front: L C R, Side: L R, LFE
Частота : 48,0 КГц
Частота кадров : 31,250 кадров/сек (1536 spf)
Метод сжатия : С потерями
Размер потока : 267 Мбайт (6%)
Заголовок : Дубляж - iTunes
Язык : Russian
Default : Да
Forced : Нет
Меню
00:00:00.000 : en:00:00:00.000
00:08:47.902 : en:00:08:47.902
00:13:14.335 : en:00:13:14.335
00:17:42.228 : en:00:17:42.228
00:25:11.593 : en:00:25:11.593
00:32:46.256 : en:00:32:46.256
00:37:17.068 : en:00:37:17.068
00:44:39.260 : en:00:44:39.260
00:51:44.101 : en:00:51:44.101
00:57:57.224 : en:00:57:57.224
01:03:19.337 : en:01:03:19.337
01:06:17.140 : en:01:06:17.140
01:10:05.535 : en:01:10:05.535
01:16:40.679 : en:01:16:40.679
01:22:10.092 : en:01:22:10.092
01:27:31.788 : en:01:27:31.788



Вернуться к началу
 Профиль Отправить личное сообщение  
 
   Похожие торренты   Автор   Торрент   Размер 
В этой теме нет новых непрочитанных сообщений. Человек – швейцарский нож / Swiss Army Man [2016, фэнтези, драма, мелодрама, комедия, приключения] BDRip, Dub (iTunes)

Dracon

19 | 1

2.19 ГБ

В этой теме нет новых непрочитанных сообщений. Человек – швейцарский нож / Swiss Army Man [фэнтези, драма, мелодрама, комедия, приключения, 2016] BDRip 1080p, dub [iTunes]

marya111

218 | 13

12.97 ГБ

В этой теме нет новых непрочитанных сообщений. Человек – швейцарский нож / Swiss Army Man [фэнтези, драма, мелодрама, комедия, приключения, 2016] HDRip, Dub [iTunes]

marya111

648 | 13

1.45 ГБ

В этой теме нет новых непрочитанных сообщений. Человек – швейцарский нож / Swiss Army Man [Мюзикл, фэнтези, драма, мелодрама, комедия, приключения, 2016] HDRip, Dub [iTunes]

marya111

0 | 0

745.5 МБ

В этой теме нет новых непрочитанных сообщений. Человек – швейцарский нож / Swiss Army Man [фэнтези, драма, мелодрама, комедия, приключения, 2016] BDRip 1080p, Dub [чистый звук]

salma3

235 | 31

7.61 ГБ

В этой теме нет новых непрочитанных сообщений. Человек – швейцарский нож / Swiss Army Man [Мюзикл, фэнтези, драма, 2016] BDRip, dub [iTunes]

salma3

0 | 0

1.46 ГБ

В этой теме нет новых непрочитанных сообщений. Человек – швейцарский нож / Swiss Army Man [Мюзикл, фэнтези, драма, 2016] BDRip, dub [iTunes]

salma3

0 | 0

745.52 МБ


Начать новую тему Ответить на тему  [ 1 сообщение ] 




Для Мосгорсуда, Роскомнадзора и рекламодателей:: mosgorsud-torrent[собачка]yandex.ru
cron