Торрент файл
скачать торрент магнет ссылка Добавлен: 05 окт 2016, 22:59
Размер: 7.38 ГБ
Сидеров: 289
Личеров: 92
Статус: (salma3)
Автор

СообщениеДобавлено: 05 окт 2016, 22:59 

Не в сети
Супермодератор
Аватара пользователя
Дата регистрации:
15 фев 2012, 16:44
Возраст: 28
Спасибо: 6579 / 2144
Сообщения: 44050
Перевод: Профессиональный (полное дублирование) [лицензия]
Субтитры: Русские, английские
Формат: BDRip, MKV, H.264, AC3/DTS
Страна: США
Режиссер: Джеймс Бобин
Жанр: фэнтези, приключения, семейный
Продолжительность: 01:52:58
Год выпуска: 2016

В ролях: Миа Васиковска, Джонни Депп, Хелена Бонем Картер, Энн Хэтэуэй, Саша Барон Коэн, Рис Иванс, Мэтт Лукас, Линдси Дункан, Лео Билл, Джеральдин Джеймс

Описание:
На этот раз главной героине предстоит отправиться в путешествие во времени, полное неожиданностей и ярких открытий, чтобы спасти своего друга, Безумного Шляпника.



Видео: 1280x694p (1.85:1), 23.976 fps, AVC MPEG-4 (H.264), ~7198 kbps, 0.338 bit/pixel
Аудио #1: Русский: 48 kHz, AC3 Dolby Digital, 6 ch, ~640 kbps [Профессиональный (полное дублирование)]
Аудио #2: Английский: 48 kHz, DTS, 6 ch, ~1509 kbps [Оригинал]

General
Unique ID : 208648254694054675690583967569015380444 (0x9CF8313121BC474F9E4AE85488EA99DC)
Complete name : H:VideoAlice.Through.the.Looking.Glass.2016.BDRip.720p.ExKinoRay.mkv
Format : Matroska
Format version : Version 4 / Version 2
File size : 7.38 GiB
Duration : 1 h 52 min
Overall bit rate : 9 350 kb/s
Movie name : Алиса в Зазеркалье.2016.Rip by: ollan
Encoded date : UTC 2016-10-05 14:03:10
Writing application : mkvmerge v8.3.0 ('Over the Horizon') 64bit
Writing library : libebml v1.3.1 + libmatroska v1.4.2
Cover : Yes
Attachments : Cover - Alice.Through.The.Looking.Glass..png

Video
ID : 1
Format : AVC
Format/Info : Advanced Video Codec
Format profile :
Format settings, CABAC : Yes
Format settings, ReFrames : 9 frames
Codec ID : V_MPEG4/ISO/AVC
Duration : 1 h 52 min
Bit rate : 7 198 kb/s
Width : 1 280 pixels
Height : 694 pixels
Display aspect ratio : 1.85:1
Frame rate mode : Constant
Frame rate : 23.976 (24000/1001) FPS
Color space : YUV
Chroma subsampling : 4:2:0
Bit depth : 8 bits
Scan type : Progressive
Bits/(Pixel*Frame) : 0.338
Stream size : 5.68 GiB (77%)
Writing library : x264 core 146 r2538 121396c
Encoding settings : cabac=1 / ref=9 / deblock=1:-3:-3 / analyse=0x3:0x133 / me=umh / subme=11 / psy=1 / psy_rd=1.00:0.10 / mixed_ref=1 / me_range=48 / chroma_me=1 / trellis=2 / 8x8dct=1 / cqm=0 / deadzone=21,11 / fast_pskip=0 / chroma_qp_offset=-3 / threads=12 / lookahead_threads=3 / sliced_threads=0 / nr=0 / decimate=0 / interlaced=0 / bluray_compat=0 / constrained_intra=0 / bframes=10 / b_pyramid=2 / b_adapt=2 / b_bias=0 / direct=3 / weightb=1 / open_gop=0 / weightp=2 / keyint=240 / keyint_min=23 / scenecut=40 / intra_refresh=0 / rc_lookahead=40 / rc=2pass / mbtree=0 / bitrate=7198 / ratetol=1.0 / qcomp=0.60 / qpmin=0 / qpmax=69 / qpstep=4 / cplxblur=20.0 / qblur=0.5 / vbv_maxrate=50000 / vbv_bufsize=62500 / nal_hrd=none / filler=0 / ip_ratio=1.40 / pb_ratio=1.30 / aq=1:1.00
Language : English
Default : Yes
Forced : No

Audio #1
ID : 2
Format : AC-3
Format/Info : Audio Coding 3
Mode extension : CM (complete main)
Format settings, Endianness : Big
Codec ID : A_AC3
Duration : 1 h 52 min
Bit rate mode : Constant
Bit rate : 640 kb/s
Channel(s) : 6 channels
Channel positions : Front: L C R, Side: L R, LFE
Sampling rate : 48.0 kHz
Frame rate : 31.250 FPS (1536 spf)
Compression mode : Lossy
Stream size : 517 MiB (7%)
Title : Dub [License]
Language : Russian
Default : Yes
Forced : No

Audio #2
ID : 3
Format : DTS
Format/Info : Digital Theater Systems
Mode : 16
Format settings, Endianness : Big
Codec ID : A_DTS
Duration : 1 h 52 min
Bit rate mode : Constant
Bit rate : 1 509 kb/s
Channel(s) : 6 channels
Channel positions : Front: L C R, Side: L R, LFE
Sampling rate : 48.0 kHz
Frame rate : 93.750 FPS (512 spf)
Bit depth : 24 bits
Compression mode : Lossy
Stream size : 1.19 GiB (16%)
Language : English
Default : No
Forced : No

Text #1
ID : 4
Format : UTF-8
Codec ID : S_TEXT/UTF8
Codec ID/Info : UTF-8 Plain Text
Duration : 1 h 43 min
Bit rate : 0 b/s
Count of elements : 6
Stream size : 187 Bytes (0%)
Title : Forced
Language : Russian
Default : Yes
Forced : No

Text #2
ID : 5
Format : UTF-8
Codec ID : S_TEXT/UTF8
Codec ID/Info : UTF-8 Plain Text
Duration : 1 h 51 min
Bit rate : 68 b/s
Count of elements : 1391
Stream size : 55.7 KiB (0%)
Title : Full
Language : Russian
Default : No
Forced : No

Text #3
ID : 6
Format : UTF-8
Codec ID : S_TEXT/UTF8
Codec ID/Info : UTF-8 Plain Text
Duration : 3 s 4 ms
Bit rate : 98 b/s
Count of elements : 2
Stream size : 37.0 Bytes (0%)
Title : Forced
Language : English
Default : No
Forced : No

Text #4
ID : 7
Format : UTF-8
Codec ID : S_TEXT/UTF8
Codec ID/Info : UTF-8 Plain Text
Duration : 1 h 51 min
Bit rate : 40 b/s
Count of elements : 1370
Stream size : 33.3 KiB (0%)
Title : Full
Language : English
Default : No
Forced : No

Menu
00:00:00.000 : en:Navigating The Wonder
00:04:32.000 : en:Return Home
00:07:24.000 : en:Canceled Plans
00:12:07.000 : en:Through The Looking Glass
00:16:39.000 : en:Old Friends
00:22:47.000 : en:Chronosphere
00:24:59.000 : en:Time's Castle
00:30:17.000 : en:The Grand Clock
00:35:30.000 : en:Arrival Of The Red Queen
00:41:32.000 : en:Ocean Of Time
00:45:20.000 : en:Coronation
00:51:35.000 : en:Warning The Hatter
00:54:11.000 : en:Tea Party With Time
00:57:40.000 : en:Tart Trouble
01:04:18.000 : en:"The Stroke Of Six"
01:09:18.000 : en:Escape From The Asylum
01:12:45.000 : en:Horunvendush Day
01:18:07.000 : en:Red Queen's Lair
01:23:20.000 : en:Changing The Past
01:27:34.000 : en:Running Out Of Time
01:32:16.000 : en:Family Reunion
01:36:40.000 : en:Goodbyes
01:40:13.000 : en:Setting Sail
01:43:14.000 : en:End Credits





_________________
Проголосуй за трекер Открытый торрент трекер - RUS-MEDIA.ORG

Проголосуй Открытый торрент трекер - RUS-MEDIA.ORG



реклама партнёра


Вернуться к началу
 Профиль Отправить личное сообщение  
 
   Похожие торренты   Автор   Торрент   Размер 
В этой теме нет новых непрочитанных сообщений. Алиса в Зазеркалье / Alice Through the Looking Glass [фэнтези, приключения, семейный, 2016] BDRip, Dub [лицензия]

salma3

434 | 44

2.18 ГБ

В этой теме нет новых непрочитанных сообщений. Алиса в Зазеркалье / Alice Through the Looking Glass [фэнтези, приключения, семейный, 2016] BDRip-AVC, Dub [лицензия]

salma3

150 | 39

2.15 ГБ

В этой теме нет новых непрочитанных сообщений. Алиса в Зазеркалье / Alice Through the Looking Glass [фэнтези, приключения, семейный, 2016] BDRip, Dub [лицензия]

salma3

1320 | 121

1.46 ГБ

В этой теме нет новых непрочитанных сообщений. Алиса в Зазеркалье / Alice Through the Looking Glass [фэнтези, приключения, семейный, 2016] BDRip 1080p, Dub [лицензия]

salma3

2 | 11

15.27 ГБ

В этой теме нет новых непрочитанных сообщений. Повторный Алиса в Зазеркалье / Alice Through the Looking Glass ( фэнтези, приключения, семейный, 2016) BDRip от ExKinoRay | Лицензия Данный торрент является блокированным, причина: повторный торрент

marya111

0 | 0

1.46 ГБ

В этой теме нет новых непрочитанных сообщений. Алиса в Зазеркалье / Alice Through the Looking Glass [Фэнтези, приключения, семейный, 2016] DVD5, Dub

salma3

45 | 27

4.37 ГБ

В этой теме нет новых непрочитанных сообщений. Алиса в Зазеркалье [Фэнтези, приключения, семейный, 2016] Blu-Ray 1080p, Dub [3D-Video] [Лицензия]

marya111

63 | 52

45.7 ГБ


Начать новую тему Ответить на тему  [ 1 сообщение ] 




Для Мосгорсуда, Роскомнадзора и рекламодателей:: mosgorsud-torrent[собачка]yandex.ru