Торрент файл
скачать торрент магнет ссылка Добавлен: 05 окт 2016, 22:49
Размер: 15.27 ГБ
Сидеров: 2
Личеров: 11
Статус: (salma3)
Автор

СообщениеДобавлено: 05 окт 2016, 22:49 

Не в сети
Супермодератор
Аватара пользователя
Дата регистрации:
15 фев 2012, 16:44
Возраст: 28
Спасибо: 6644 / 2146
Сообщения: 46014
Перевод: Профессиональный (полное дублирование) [лицензия]
Субтитры: русские, английские
Формат: BDRip, MKV, H.264, AC3/DTS
Страна: США, Великобритания
Режиссер: Джеймс Бобин
Жанр: фэнтези, приключения, семейный
Продолжительность: 01:52:57
Год выпуска: 2016

В ролях: Миа Васиковска, Джонни Депп, Хелена Бонем Картер, Энн Хэтэуэй, Саша Барон Коэн, Рис Иванс, Мэтт Лукас, Линдси Дункан, Лео Билл, Джеральдин Джеймс

Описание: На этот раз главной героине предстоит отправиться в путешествие во времени, полное неожиданностей и ярких открытий, чтобы спасти своего друга, Безумного Шляпника.

Рейтинг на IMDB: 6.3/10
Рейтинг MPAA: PG
Рейтинг на Кинопоиск.RU: 6.726

Видео: 1920x1040p (1.85:1), 23.976 fps, AVC MPEG-4 (x264), , ~16.6 Мbps avg., 0.347 bits/(pixel*frame)

Аудио#1: Русский: 48 kHz, AC3, 3/2 (L,C,R,l,r) + LFE ch, ~640.00 kbps avg [Профессиональный (полное дублирование) BD CEE]
Аудио#2: Английский: 48 kHz, DTS, 3/2 (L,C,R,l,r) + LFE ch, ~1509.00 kbps avg [Оригинал]
Аудио#3: Английский: 48 kHz, AC3, 2/0 (L,R) ch, ~192.00 kbps avg [Комментарии]

Общее
Уникальный идентификатор : 193678351869332902636890477557484161883 (0x91B517FFA33F9F7FB09D18C7367D0B5B)
Полное имя : D:\Alice.Through.the.Looking.Glass.BDRip.1080.mkv
Формат : Matroska
Версия формата : Version 2
Размер файла : 15,3 Гбайт
Продолжительность : 1 ч. 52 м.
Общий поток : 19,4 Мбит/сек
Дата кодирования : UTC 2016-10-05 13:27:42
Программа кодирования : mkvmerge v5.6.0 ('Kenya Kane') built on May 27 2012 16:44:04
Библиотека кодирования : libebml v1.2.3 + libmatroska v1.3.0

Видео
Идентификатор : 1
Формат : AVC
Формат/Информация : Advanced Video Codec
Профиль формата :
Параметр CABAC формата : Да
Параметр ReFrames формата : 4 кадра
Идентификатор кодека : V_MPEG4/ISO/AVC
Продолжительность : 1 ч. 52 м.
Битрейт : 16,6 Мбит/сек
Ширина : 1920 пикселей
Высота : 1040 пикселей
Соотношение сторон : 1,85:1
Режим частоты кадров : Постоянный
Частота кадров : 23,976 кадра/сек
Цветовое пространство : YUV
Субдискретизация насыщенности : 4:2:0
Битовая глубина : 8 бит
Тип развёртки : Прогрессивная
Бит/(Пиксели*Кадры) : 0.347
Размер потока : 13,1 Гбайт (86%)
Библиотека кодирования : x264 core 148 r2705kMod 3f5ed56
Настройки программы : cabac=1 / ref=4 / deblock=1:-3:-3 / analyse=0x3:0x133 / me=umh / subme=10 / psy=1 / fade_compensate=0.00 / psy_rd=1.00:0.00 / mixed_ref=1 / me_range=24 / chroma_me=1 / trellis=2 / 8x8dct=1 / cqm=0 / deadzone=21,11 / fast_pskip=0 / chroma_qp_offset=-2 / threads=56 / lookahead_threads=8 / sliced_threads=0 / nr=0 / decimate=0 / interlaced=0 / bluray_compat=0 / constrained_intra=0 / fgo=0 / bframes=8 / b_pyramid=2 / b_adapt=2 / b_bias=0 / direct=3 / weightb=1 / open_gop=0 / weightp=2 / keyint=250 / keyint_min=23 / scenecut=40 / intra_refresh=0 / rc_lookahead=60 / rc=crf / mbtree=0 / crf=17.5000 / qcomp=0.65 / qpmin=0 / qpmax=69 / qpstep=4 / vbv_maxrate=62500 / vbv_bufsize=78125 / crf_max=0.0 / nal_hrd=none / filler=0 / ip_ratio=1.30 / pb_ratio=1.20 / aq=3:0.75
Язык : English
Default : Да
Forced : Нет
Коэффициенты матрицы : BT.709

Аудио #1
Идентификатор : 2
Формат : AC-3
Формат/Информация : Audio Coding 3
Расширение режима : CM (complete main)
Параметр Endianness формата : Big
Режим смешивания : Header stripping
Идентификатор кодека : A_AC3
Продолжительность : 1 ч. 52 м.
Вид битрейта : Постоянный
Битрейт : 640 Кбит/сек
Каналы : 6 каналов
Расположение каналов : Front: L C R, Side: L R, LFE
Частота : 48,0 КГц
Битовая глубина : 16 бит
Метод сжатия : С потерями
Размер потока : 517 Мбайт (3%)
Язык : Russian
Default : Да
Forced : Нет

Аудио #2
Идентификатор : 3
Формат : DTS
Формат/Информация : Digital Theater Systems
Режим : 16
Параметр Endianness формата : Big
Режим смешивания : Header stripping
Идентификатор кодека : A_DTS
Продолжительность : 1 ч. 52 м.
Вид битрейта : Постоянный
Битрейт : 1509 Кбит/сек
Каналы : 6 каналов
Расположение каналов : Front: L C R, Side: L R, LFE
Частота : 48,0 КГц
Битовая глубина : 24 бит
Метод сжатия : С потерями
Задержка видео : 11 мс.
Размер потока : 1,19 Гбайт (8%)
Язык : English
Default : Нет
Forced : Нет

Аудио #3
Идентификатор : 4
Формат : AC-3
Формат/Информация : Audio Coding 3
Расширение режима : CM (complete main)
Параметр Endianness формата : Big
Режим смешивания : Header stripping
Идентификатор кодека : A_AC3
Продолжительность : 1 ч. 52 м.
Вид битрейта : Постоянный
Битрейт : 192 Кбит/сек
Каналы : 2 канала
Расположение каналов : Front: L R
Частота : 48,0 КГц
Битовая глубина : 16 бит
Метод сжатия : С потерями
Размер потока : 155 Мбайт (1%)
Заголовок : Commentary by Director James Bobin
Язык : English
Default : Нет
Forced : Нет

Текст #1
Идентификатор : 5
Формат : UTF-8
Идентификатор кодека : S_TEXT/UTF8
Идентификатор кодека/Информация : UTF-8 Plain Text
Заголовок : Forced, iTunes
Язык : Russian
Default : Да
Forced : Нет

Текст #2
Идентификатор : 6
Формат : UTF-8
Идентификатор кодека : S_TEXT/UTF8
Идентификатор кодека/Информация : UTF-8 Plain Text
Заголовок : iTunes
Язык : Russian
Default : Нет
Forced : Нет

Текст #3
Идентификатор : 7
Формат : UTF-8
Идентификатор кодека : S_TEXT/UTF8
Идентификатор кодека/Информация : UTF-8 Plain Text
Заголовок : Forced, iTunes
Язык : English
Default : Нет
Forced : Нет

Текст #4
Идентификатор : 8
Формат : UTF-8
Идентификатор кодека : S_TEXT/UTF8
Идентификатор кодека/Информация : UTF-8 Plain Text
Заголовок : iTunes
Язык : English
Default : Нет
Forced : Нет

Текст #5
Идентификатор : 9
Формат : UTF-8
Идентификатор кодека : S_TEXT/UTF8
Идентификатор кодека/Информация : UTF-8 Plain Text
Заголовок : Commentary
Язык : English
Default : Нет
Forced : Нет

Меню
00:00:00.000 : en:Navigating The Wonder
00:04:33.190 : en:Return Home
00:07:24.235 : en:Canceled Plans
00:12:07.435 : en:Through The Looking Glass
00:16:39.790 : en:Old Friends
00:22:47.616 : en:Chronosphere
00:24:59.623 : en:Time's Castle
00:30:18.233 : en:The Grand Clock
00:35:29.794 : en:Arrival Of The Red Queen
00:41:32.990 : en:Ocean Of Time
00:45:20.051 : en:Coronation
00:51:35.676 : en:Warning The Hatter
00:54:11.039 : en:Tea Party With Time
00:57:40.123 : en:Tart Trouble
01:04:18.521 : en:"The Stroke Of Six"
01:09:18.988 : en:Escape From The Asylum
01:12:46.279 : en:Horunvendush Day
01:18:07.391 : en:Red Queen's Lair
01:23:20.245 : en:Changing The Past
01:27:34.749 : en:Running Out Of Time
01:32:15.947 : en:Family Reunion
01:36:40.461 : en:Goodbyes
01:40:12.590 : en:Setting Sail
01:43:14.814 : en:End Credits



_________________
Проголосуй за трекер Открытый торрент трекер - RUS-MEDIA.ORG

Проголосуй Открытый торрент трекер - RUS-MEDIA.ORG



реклама партнёра


Вернуться к началу
 Профиль Отправить личное сообщение  
 
   Похожие торренты   Автор   Торрент   Размер 
В этой теме нет новых непрочитанных сообщений. Алиса в Зазеркалье / Alice Through the Looking Glass [фэнтези, приключения, семейный, 2016] BDRip-AVC, Dub [лицензия]

salma3

150 | 39

2.15 ГБ

В этой теме нет новых непрочитанных сообщений. Алиса в Зазеркалье / Alice Through the Looking Glass [фэнтези, приключения, семейный, 2016] BDRip, Dub [лицензия]

salma3

434 | 44

2.18 ГБ

В этой теме нет новых непрочитанных сообщений. Алиса в Зазеркалье / Alice Through the Looking Glass [фэнтези, приключения, семейный, 2016] BDRip, Dub [лицензия]

salma3

1273 | 121

1.46 ГБ

В этой теме нет новых непрочитанных сообщений. Алиса в Зазеркалье / Alice Through the Looking Glass [фэнтези, приключения, семейный, 2016] BDRip 720p, Dub [лицензия]

salma3

289 | 92

7.38 ГБ

В этой теме нет новых непрочитанных сообщений. Повторный Алиса в Зазеркалье / Alice Through the Looking Glass ( фэнтези, приключения, семейный, 2016) BDRip от ExKinoRay | Лицензия Данный торрент является блокированным, причина: повторный торрент

marya111

0 | 0

1.46 ГБ

В этой теме нет новых непрочитанных сообщений. Алиса в Зазеркалье / Alice Through the Looking Glass [Фэнтези, приключения, семейный, 2016] DVD5, Dub

salma3

45 | 27

4.37 ГБ

В этой теме нет новых непрочитанных сообщений. Алиса в Зазеркалье [Фэнтези, приключения, семейный, 2016] Blu-Ray 1080p, Dub [3D-Video] [Лицензия]

marya111

63 | 52

45.7 ГБ


Начать новую тему Ответить на тему  [ 1 сообщение ] 




Для Мосгорсуда, Роскомнадзора и рекламодателей:: mosgorsud-torrent[собачка]yandex.ru