Торрент файл
скачать торрент магнет ссылка Добавлен: 05 окт 2016, 01:42
Размер: 7.99 ГБ
Сидеров: 116
Личеров: 5
Статус: (salma3)
Автор

СообщениеДобавлено: 05 окт 2016, 01:42 

Не в сети
Дата регистрации:
28 сен 2016, 18:10
Спасибо: 213 / 0
Сообщения: 1999
Информация о фильме
Название: Заклятие 2
Оригинальное название: The Conjuring 2
Страна: США
Студия: Atomic Monster
Жанр: Ужасы, мистика, драма
Год выпуска: 2016
Продолжительность: 02:13:53
Перевод: Профессиональный (дублированный)
Cубтитры: Rus, Eng
Оригинальная аудиодорожка: английский
Режиссер: Джеймс Ван / James Wan

В ролях: Патрик Уилсон, Вера Фармига, Мэдисон Вульф, Фрэнсис О’Коннор, Лорен Эспозито, Саймон МакБерни, Мария Дойл Кеннеди, Саймон Делани

Описание: Фильм основан на случае, с которым столкнулись практикующие исследователи паранормальных явлений Эд и Лоррэйн Уоррены. На этот раз вызов будет из северного пригорода Лондона, где семья, состоящая из четырех детей и матери-одиночки, подвергается нападениям потусторонних сил. Супругам предстоит выяснить, какова природа этих явлений, полтергейст ли это, или что-то другое, и главное — почему именно этот дом и именно эта семья.



Тип релиза: BDRip 720p
Контейнер: MKV
Видео: MPEG-4 AVC, 7287 Кбит/с, 1280x534, 23,976 fps
Аудио: Rus, AC3, 448 kb/s (6 ch), 48 kHz
Аудио 2: Eng, AC3, 640 kb/s (6 ch), 48 kHz
Формат субтитров: softsub (SRT)
x264 [info]: frame I:1534 Avg QP:13.56 size:135386
x264 [info]: frame P:36524 Avg QP:14.79 size: 68060
x264 [info]: frame B:154535 Avg QP:16.31 size: 31005
Format : Matroska
Format version : Version 4 / Version 2
File size : 7.99 GiB
Duration : 2h 13mn
Overall bit rate : 8 545 Kbps
Movie name : Заклятие 2. (Tonik)
Encoded date : UTC 2016-09-30 03:51:54
Writing application : mkvmerge v7.1.0 ('Good Love') 64bit built on Jul 27 2014 13:06:55
Writing library : libebml v1.3.0 + libmatroska v1.4.1
_STATISTICS_WRITING_APP : mkvmerge v7.1.0 ('Good Love') 64bit built on Jul 27 2014 13:06:55
_STATISTICS_WRITING_DATE_UTC : 2016-09-30 03:51:54
_STATISTICS_TAGS : BPS DURATION NUMBER_OF_FRAMES NUMBER_OF_BYTES
DURATION : 02:13:52.768000000
NUMBER_OF_FRAMES : 251024
NUMBER_OF_BYTES : 449835008
Video
ID : 1
Format : AVC
Format/Info : Advanced Video Codec
Format profile : High@L4.1
Format settings, CABAC : Yes
Format settings, ReFrames : 12 frames
Codec ID : V_MPEG4/ISO/AVC
Duration : 2h 13mn
Bit rate : 7 287 Kbps
Width : 1 280 pixels
Height : 534 pixels
Display aspect ratio : 2.40:1
Frame rate mode : Constant
Frame rate : 23.976 fps
Color space : YUV
Chroma subsampling : 4:2:0
Bit depth : 8 bits
Scan type : Progressive
Bits/(Pixel*Frame) : 0.445
Stream size : 6.81 GiB (85%)
Writing library : x264 core 148 r2705+54 9f484c1 t_mod_Custom [8-bit@all X86_64]
Encoding settings : cabac=1 / ref=12 / deblock=1:-3:-3 / analyse=0x3:0x133 / me=umh / subme=11 / psy=1 / fade_compensate=0.00 / psy_rd=1.05:0.05 / mixed_ref=1 / me_range=32 / chroma_me=1 / trellis=2 / 8x8dct=1 / cqm=0 / deadzone=21,11 / fast_pskip=0 / chroma_qp_offset=-3 / threads=6 / lookahead_threads=1 / sliced_threads=0 / nr=0 / decimate=1 / interlaced=0 / bluray_compat=0 / constrained_intra=0 / fgo=0 / bframes=9 / b_pyramid=2 / b_adapt=2 / b_bias=0 / direct=3 / weightb=1 / open_gop=0 / weightp=2 / keyint=250 / keyint_min=23 / scenecut=40 / intra_refresh=0 / rc_lookahead=60 / rc=crf / mbtree=0 / crf=16.0000 / qcomp=0.70 / qpmin=0:0:0 / qpmax=69:69:69 / qpstep=4 / vbv_maxrate=62500 / vbv_bufsize=78125 / crf_max=0.0 / nal_hrd=none / filler=0 / ip_ratio=1.30 / pb_ratio=1.20 / aq=1:0.70 / aq-sensitivity=10.00 / aq-factor=1.00:1.00:1.00 / aq2=0 / aq3=0
Language : English
Default : Yes
Forced : No
Color primaries : BT.709
Transfer characteristics : BT.709
Matrix coefficients : BT.709
_STATISTICS_WRITING_APP : mkvmerge v7.1.0 ('Good Love') 64bit built on Jul 27 2014 13:06:55
_STATISTICS_WRITING_DATE_UTC : 2016-09-30 03:51:54
_STATISTICS_TAGS : BPS DURATION NUMBER_OF_FRAMES NUMBER_OF_BYTES
DURATION : 02:13:52.733000000
NUMBER_OF_FRAMES : 192593
NUMBER_OF_BYTES : 7484885197
Audio #1
ID : 2
Format : AC-3
Format/Info : Audio Coding 3
Mode extension : CM (complete main)
Format settings, Endianness : Big
Codec ID : A_AC3
Duration : 2h 13mn
Bit rate mode : Constant
Bit rate : 448 Kbps
Channel(s) : 6 channels
Channel positions : Front: L C R, Side: L R, LFE
Sampling rate : 48.0 KHz
Bit depth : 16 bits
Compression mode : Lossy
Stream size : 429 MiB (5%)
Language : Russian
Default : Yes
Forced : No
Audio #2
ID : 3
Format : AC-3
Format/Info : Audio Coding 3
Mode extension : CM (complete main)
Format settings, Endianness : Big
Codec ID : A_AC3
Duration : 2h 13mn
Bit rate mode : Constant
Bit rate : 640 Kbps
Channel(s) : 6 channels
Channel positions : Front: L C R, Side: L R, LFE
Sampling rate : 48.0 KHz
Bit depth : 16 bits
Compression mode : Lossy
Stream size : 613 MiB (7%)
Language : English
Default : No
Forced : No
Text #1
ID : 4
Format : UTF-8
Codec ID : S_TEXT/UTF8
Codec ID/Info : UTF-8 Plain Text
Title : Forced
Language : Russian
Default : Yes
Forced : No
Text #2
ID : 5
Format : UTF-8
Codec ID : S_TEXT/UTF8
Codec ID/Info : UTF-8 Plain Text
Language : Russian
Default : No
Forced : No
Text #3
ID : 6
Format : UTF-8
Codec ID : S_TEXT/UTF8
Codec ID/Info : UTF-8 Plain Text
Language : English
Default : No
Forced : No
Text #4
ID : 7
Format : UTF-8
Codec ID : S_TEXT/UTF8
Codec ID/Info : UTF-8 Plain Text
Title : SDH
Language : English
Default : No
Forced : No
Menu
00:00:00.000 : en:00:00:00.000
00:08:24.671 : en:00:08:24.671
00:18:40.703 : en:00:18:40.703
00:28:34.212 : en:00:28:34.212
00:40:01.399 : en:00:40:01.399
00:48:46.841 : en:00:48:46.841
01:02:14.314 : en:01:02:14.314
01:09:29.665 : en:01:09:29.665
01:21:55.869 : en:01:21:55.869
01:29:26.486 : en:01:29:26.486
01:38:53.469 : en:01:38:53.469
01:48:15.364 : en:01:48:15.364
02:03:10.508 : en:02:03:10.508
02:07:36.816 : en:02:07:36.816




реклама партнёра


Вернуться к началу
 Профиль Отправить личное сообщение  
 
   Похожие торренты   Автор   Торрент   Размер 
В этой теме нет новых непрочитанных сообщений. Повторный Заклятие 2 / The Conjuring 2 (Ужасы, мистика, драма, 2016) BDRip 1080p от New-Team | Лицензия Данный торрент является блокированным, причина: повторный торрент

marya111

0 | 0

14.45 ГБ

В этой теме нет новых непрочитанных сообщений. Заклятие 2 / The Conjuring 2 [ужасы, мистика, триллер, детектив, 2016] BDRip, Dub [Лицензия]

salma3

280 | 168

1.46 ГБ

В этой теме нет новых непрочитанных сообщений. Заклятие 2 / The Conjuring 2 [ужасы, мистика, триллер, детектив, 2016] BDRip 1080p, Dub+Sub [Лицензия]

salma3

4 | 13

14.68 ГБ

В этой теме нет новых непрочитанных сообщений. Заклятие 2 / The Conjuring 2 [Ужасы, триллер, детектив, 2016] BDRip-AVC, Dub [Лицензия]

salma3

84 | 34

2.66 ГБ

В этой теме нет новых непрочитанных сообщений. Заклятие 2 / The Conjuring 2 [ужасы, триллер, детектив, 2016] BDRip-AVC, Dub [Лицензия]

salma3

142 | 70

1.46 ГБ

В этой теме нет новых непрочитанных сообщений. Заклятие 2 / The Conjuring 2 [Ужасы, 2016] HDRip, Dub [Лицензия]

salma3

62 | 8

2.18 ГБ

В этой теме нет новых непрочитанных сообщений. Заклятие 2 / The Conjuring 2 [Ужасы, 2016] HDRip, Dub [Лицензия]

salma3

125 | 59

1.46 ГБ


Начать новую тему Ответить на тему  [ 1 сообщение ] 




Для Мосгорсуда, Роскомнадзора и рекламодателей:: mosgorsud-torrent[собачка]yandex.ru
cron