Торрент файл
скачать торрент магнет ссылка Добавлен: 04 окт 2016, 12:17
Размер: 3.63 ГБ
Сидеров: 490
Личеров: 70
Статус: (salma3)
Автор

СообщениеДобавлено: 04 окт 2016, 12:17 

Не в сети
Супермодератор
Аватара пользователя
Дата регистрации:
15 фев 2012, 16:44
Возраст: 28
Спасибо: 7226 / 2147
Сообщения: 68215
Год выхода: 2016
Жанр: комедия
Режиссер: Эндрю Буш

В ролях: Мамри Харт, Адам Лустик, Джозелин Хьюз, Грэйс Хельбиг, Ханна Харт, Анна Акана, Annie Sertich, Тимоти Коул, Бетси Рэндл, Эндрю Райдингс

О фильме:
Фильм рассказывает о трех близких подругах – Кейт, Иви и Чарли, которые погрязли в повседневной рутине. Кейт проводит свои дни на посредственной работе, а ночами пребывает в одиночестве или же на свиданиях, которые постоянно заканчиваются для нее неудачами. Иви замужем, но родня мужа сводит ее с ума. У Чарли есть девушка ее мечты, но там тоже не все гладко. Накануне своего 30-летия Кейт разрешает подружкам устроить ей вечеринку. Однако в итоге простой праздник оборачивается полным безумием.

Страна: США
Продолжительность: 01:27:02
Перевод: любительский [многоголосый, закадровый] [GreenРай Studio]

Файл
Кодек: MPEG4 Video (H264)
Качество: WEB-DL 1080p | L
Видео: 1908x1028, 5087 Kbps, 23.976fp
Звук:
Аудио 1: AC3, 6 ch, 384 kbps, CBR - Русский MVO
Аудио 2: AC3, 6 ch, 384 kbps, CBR - Английский
Субтитры: Английские
Семпл
Общее
Уникальный идентификатор : 236483573352387107852556957083788635613 (0xB1E9145BEA246B958D74700A170BEDDD)
Полное имя : Dirty 30.2016.WEB-DL.1080p.mkv
Формат : Matroska
Версия формата : Version 2
Размер файла : 3,63 Гбайт
Продолжительность : 1 ч. 27 м.
Общий поток : 5974 Кбит/сек
Название фильма : Dirty.30.2016.1080p.WEB-DL
Дата кодирования : UTC 2016-10-02 20:49:04
Программа кодирования : mkvmerge v4.0.0 ('The Stars were mine') сборка от Jun 6 2010 16:18:42
Библиотека кодирования : libebml v1.0.0 + libmatroska v1.0.0
Обложка : Yes
Attachments : cover_land.jpg / small_cover.jpg / small_cover_land.jpg / cover.jpg
Видео
Идентификатор : 1
Формат : AVC
Формат/Информация : Advanced Video Codec
Профиль формата : High@L4
Параметр CABAC формата : Да
Параметр ReFrames формата : 4 кадра
Идентификатор кодека : V_MPEG4/ISO/AVC
Продолжительность : 1 ч. 27 м.
Битрейт : 5087 Кбит/сек
Ширина : 1908 пикселей
Высота : 1028 пикселей
Соотношение сторон : 1,85:1
Режим частоты кадров : Постоянный
Частота кадров : 23,976 (24000/1001) кадра/сек
Цветовое пространство : YUV
Субдискретизация насыщенности : 4:2:0
Битовая глубина : 8 бит
Тип развёртки : Прогрессивная
Бит/(Пиксели*Кадры) : 0.108
Размер потока : 3,09 Гбайт (85%)
Язык : English
Default : Нет
Forced : Нет
Цветовой диапазон : Limited
Основные цвета : BT.709
Характеристики трансфера : BT.709
Коэффициенты матрицы : BT.709
Аудио #1
Идентификатор : 2
Формат : AC-3
Формат/Информация : Audio Coding 3
Расширение режима : CM (complete main)
Параметр Endianness формата : Big
Идентификатор кодека : A_AC3
Продолжительность : 1 ч. 27 м.
Вид битрейта : Постоянный
Битрейт : 384 Кбит/сек
Каналы : 6 каналов
Расположение каналов : Front: L C R, Side: L R, LFE
Частота : 48,0 КГц
Частота кадров : 31,250 кадров/сек (1536 spf)
Метод сжатия : С потерями
Размер потока : 239 Мбайт (6%)
Заголовок : GreenРай Studio
Язык : Russian
Default : Да
Forced : Да
Аудио #2
Идентификатор : 3
Формат : AC-3
Формат/Информация : Audio Coding 3
Расширение режима : CM (complete main)
Параметр Endianness формата : Big
Идентификатор кодека : A_AC3
Продолжительность : 1 ч. 27 м.
Вид битрейта : Постоянный
Битрейт : 384 Кбит/сек
Каналы : 6 каналов
Расположение каналов : Front: L C R, Side: L R, LFE
Частота : 48,0 КГц
Частота кадров : 31,250 кадров/сек (1536 spf)
Метод сжатия : С потерями
Размер потока : 239 Мбайт (6%)
Язык : English
Default : Нет
Forced : Нет
Текст
Идентификатор : 4
Формат : UTF-8
Идентификатор кодека : S_TEXT/UTF8
Идентификатор кодека/Информация : UTF-8 Plain Text
Язык : English
Default : Нет
Forced : Нет
Меню
00:00:00.000 : en:1
00:02:42.000 : en:2
00:13:19.000 : en:3
00:24:52.000 : en:4
00:35:54.000 : en:5
00:46:00.000 : en:6
00:57:42.000 : en:7
01:08:02.000 : en:8
01:19:13.000 : en:9
01:22:41.000 : en:10



_________________
Проголосуй за трекер Открытый торрент трекер - RUS-MEDIA.ORG

Проголосуй Открытый торрент трекер - RUS-MEDIA.ORG


Вернуться к началу
 Профиль Отправить личное сообщение  
 
   Похожие торренты   Автор   Торрент   Размер 
В этой теме нет новых непрочитанных сообщений. Безумный тридцатник / Dirty 30 [комедия, 2016] WEB-DLRip, Mvo

salma3

1878 | 533

1.37 ГБ

В этой теме нет новых непрочитанных сообщений. Это безумный, безумный, безумный, безумный мир / It's a Mad, Mad, Mad, Mad World [боевик, комедия, криминал, 1963] BDRemux 1080p, Dvo

salma3

0 | 0

43.79 ГБ

В этой теме нет новых непрочитанных сообщений. Alex Blake So Clean So Dirty (2016) 1080p

salma3

0 | 0

1.12 ГБ

В этой теме нет новых непрочитанных сообщений. Один безумный круиз / One Crazy Cruise [комедия, семейный, 2015] WEB-DL 1080p, Dub

salma3

105 | 29

2.48 ГБ

В этой теме нет новых непрочитанных сообщений. [Holed.com] Adriana Chechick (Dirty Dick for Dirty Mouth / 15.08.17.) [Gonzo, Anal, 1080p]

salma3

31 | 10

2.18 ГБ

В этой теме нет новых непрочитанных сообщений. Дедушка легкого поведения / Dirty Grandpa [комедия, 2016] WEBRip, Dub [чистый звук]

salma3

248 | 4

1.37 ГБ

В этой теме нет новых непрочитанных сообщений. Дедушка легкого поведения / Dirty Grandpa [Комедия, 2016] WEB-DL 720p, Dub [чистый звук]

salma3

3150 | 167

1.96 ГБ


Начать новую тему Ответить на тему  [ 1 сообщение ] 




Для Мосгорсуда, Роскомнадзора и рекламодателей:: mosgorsud-torrent[собачка]yandex.ru
cron