Торрент файл
скачать торрент магнет ссылка Добавлен: 29 сен 2016, 12:31
Размер: 9.02 ГБ
Сидеров: 39
Личеров: 33
Статус: (salma3)
Автор

СообщениеДобавлено: 29 сен 2016, 12:31 

Не в сети
Супермодератор
Аватара пользователя
Дата регистрации:
15 фев 2012, 16:44
Возраст: 29
Спасибо: 7339 / 2147
Сообщения: 75713
Год выхода: 1998
Страна: США
Студия: Paramount Pictures, Digital Image Associates
Продолжительность: 01:43:01
Жанр: фантастика, боевик, триллер, приключения
Режиссер: Джонатан Фрейкс

В ролях: Патрик Стюарт, Джонатан Фрейкс, Брент Спайнер, ЛеВар Бёртон, Майкл Дорн, Гейтс МакФэдден, Марина Сиртис, Ф. Мюррэй Абрахам, Донна Мерфи, Энтони Зерби, ...
Перевод:
- Профессиональный (многоголосный, закадровый) TV Первый Канал
- Профессиональный (многоголосный, закадровый) Премьер Видео Фильм
- Профессиональный (многоголосный, закадровый) SDI Media
- Авторский (одноголосый, закадровый) Живов Юрий Викторович
- Субтитры

О фильме: С самого начала Федерации Генеральная Директива четко гласила: «Ни одна из экспедиций Звездного Флота не должна вмешиваться в естественное развитие других цивилизаций». В этот раз отважному Пикарду пришлось столкнуться с приказом, нарушающим это постановление. В случае если капитан звездолета «Энтерпрайз» подчинится приказу, 600 безобидных обитателей планеты Ба Ку будут насильственно вывезены за пределы их прекрасного мира. Это будет сделано во имя мнимого благоденствия миллионов, которые почерпнут энергию из знаменитого Фонтана омолаживающих сил. Если же Пикард откажется выполнить приказ, то он рискует своим кораблем, карьерой и… жизнью.
Но справедливость превыше всего, и у капитана остается лишь одна возможность: восстать против Звездного Флота и возглавить восстание во имя сохранения Рая!…



Кодек: x264
Качество: BDRip 1080p
Видео: 1920x820, 10000 kbps, 23,976 fps
Аудио #1: AC-3, 2 ch, 192 kbps (Rus) - MVO Первый Канал
Аудио #2: AC-3, 2 ch, 192 kbps (Rus) - MVO Премьер Видео Фильм
Аудио #3: AC-3, 2 ch, 192 kbps (Rus) - MVO SDI Media
Аудио #4: AC-3, 6 ch, 448 kbps (Rus) - AVO Живов Юрий Викторович
Аудио #5: DTS, 2 ch, 1509 kbps (Eng)
Субтитры: Русские, Английские
За исходник спасибо - Sergey40001
x264 [info]: frame I:1063 Avg QP:12.85 size:241986
x264 [info]: frame P:36705 Avg QP:15.06 size:102949
x264 [info]: frame B:110447 Avg QP:17.15 size: 33399
x264 [info]: consecutive B-frames: 2.1% 3.5% 16.9% 28.6% 23.3% 23.3% 1.4% 0.3% 0.1% 0.1% 0.0% 0.0% 0.2%
Общее
Уникальный идентификатор : 179638390042037653923051601653603957798 (0x8725186FB23469D8A0568533718EFC26)
Полное имя : Звездный путь Восстание (Star Trek Insurrection) 1998 BDRip 1080р.mkv
Формат : Matroska
Версия формата : Version 2
Размер файла : 9,02 Гбайт
Продолжительность : 1 ч. 43 м.
Общий поток : 12,5 Мбит/сек
Дата кодирования : UTC 2016-09-28 05:46:21
Программа кодирования : mkvmerge v4.0.0 ('The Stars were mine') сборка от Jun 6 2010 16:18:42
Библиотека кодирования : libebml v1.0.0 + libmatroska v1.0.0
Видео
Идентификатор : 1
Формат : AVC
Формат/Информация : Advanced Video Codec
Профиль формата : High@L4.1
Параметр CABAC формата : Да
Параметр ReFrames формата : 5 кадров
Идентификатор кодека : V_MPEG4/ISO/AVC
Продолжительность : 1 ч. 43 м.
Битрейт : 10000 Кбит/сек
Ширина : 1920 пикселей
Высота : 820 пикселей
Соотношение сторон : 2,35:1
Режим частоты кадров : Постоянный
Частота кадров : 23,976 (24000/1001) кадра/сек
Цветовое пространство : YUV
Субдискретизация насыщенности : 4:2:0
Битовая глубина : 8 бит
Тип развёртки : Прогрессивная
Бит/(Пиксели*Кадры) : 0.265
Размер потока : 7,02 Гбайт (78%)
Библиотека кодирования : x264 core 146 r2538 121396c
Настройки программы : cabac=1 / ref=5 / deblock=1:-3:-3 / analyse=0x3:0x133 / me=umh / subme=11 / psy=1 / psy_rd=1.00:0.00 / mixed_ref=1 / me_range=32 / chroma_me=1 / trellis=2 / 8x8dct=1 / cqm=0 / deadzone=21,11 / fast_pskip=0 / chroma_qp_offset=-2 / threads=12 / lookahead_threads=2 / sliced_threads=0 / nr=0 / decimate=0 / interlaced=0 / bluray_compat=0 / constrained_intra=0 / bframes=12 / b_pyramid=2 / b_adapt=2 / b_bias=0 / direct=3 / weightb=1 / open_gop=0 / weightp=2 / keyint=240 / keyint_min=23 / scenecut=40 / intra_refresh=0 / rc=2pass / mbtree=0 / bitrate=10000 / ratetol=1.0 / qcomp=0.60 / qpmin=0 / qpmax=69 / qpstep=4 / cplxblur=20.0 / qblur=0.5 / ip_ratio=1.40 / pb_ratio=1.30 / aq=1:0.80
Язык : English
Default : Нет
Forced : Нет
Аудио #1
Идентификатор : 2
Формат : AC-3
Формат/Информация : Audio Coding 3
Профиль формата : Dolby Digital
Расширение режима : CM (complete main)
Параметр Endianness формата : Big
Идентификатор кодека : A_AC3
Продолжительность : 1 ч. 43 м.
Вид битрейта : Постоянный
Битрейт : 192 Кбит/сек
Каналы : 2 канала
Расположение каналов : Front: L R
Частота : 48,0 КГц
Частота кадров : 31,250 кадров/сек (1536 spf)
Метод сжатия : С потерями
Размер потока : 141 Мбайт (2%)
Заголовок : MVO Первый Канал
Язык : Russian
Default : Нет
Forced : Нет
Аудио #2
Идентификатор : 3
Формат : AC-3
Формат/Информация : Audio Coding 3
Профиль формата : Dolby Digital
Расширение режима : CM (complete main)
Параметр Endianness формата : Big
Идентификатор кодека : A_AC3
Продолжительность : 1 ч. 43 м.
Вид битрейта : Постоянный
Битрейт : 192 Кбит/сек
Каналы : 2 канала
Расположение каналов : Front: L R
Частота : 48,0 КГц
Частота кадров : 31,250 кадров/сек (1536 spf)
Метод сжатия : С потерями
Размер потока : 141 Мбайт (2%)
Заголовок : MVO Премьер Видео Фильм
Язык : Russian
Default : Нет
Forced : Нет
Аудио #3
Идентификатор : 4
Формат : AC-3
Формат/Информация : Audio Coding 3
Профиль формата : Dolby Digital
Расширение режима : CM (complete main)
Параметр Endianness формата : Big
Идентификатор кодека : A_AC3
Продолжительность : 1 ч. 43 м.
Вид битрейта : Постоянный
Битрейт : 192 Кбит/сек
Каналы : 2 канала
Расположение каналов : Front: L R
Частота : 48,0 КГц
Частота кадров : 31,250 кадров/сек (1536 spf)
Метод сжатия : С потерями
Размер потока : 141 Мбайт (2%)
Заголовок : MVO SDI Media
Язык : Russian
Default : Нет
Forced : Нет
Аудио #4
Идентификатор : 5
Формат : AC-3
Формат/Информация : Audio Coding 3
Расширение режима : CM (complete main)
Параметр Endianness формата : Big
Идентификатор кодека : A_AC3
Продолжительность : 1 ч. 43 м.
Вид битрейта : Постоянный
Битрейт : 448 Кбит/сек
Каналы : 6 каналов
Расположение каналов : Front: L C R, Side: L R, LFE
Частота : 48,0 КГц
Частота кадров : 31,250 кадров/сек (1536 spf)
Метод сжатия : С потерями
Размер потока : 330 Мбайт (4%)
Заголовок : AVO Живов Юрий Викторович
Язык : Russian
Default : Нет
Forced : Нет
Аудио #5
Идентификатор : 6
Формат : DTS
Формат/Информация : Digital Theater Systems
Режим : 16
Параметр Endianness формата : Big
Идентификатор кодека : A_DTS
Продолжительность : 1 ч. 43 м.
Вид битрейта : Постоянный
Битрейт : 1509 Кбит/сек
Каналы : 6 каналов
Расположение каналов : Front: L C R, Side: L R, LFE
Частота : 48,0 КГц
Частота кадров : 93,750 кадра/сек (512 spf)
Битовая глубина : 24 бит
Метод сжатия : С потерями
Размер потока : 1,09 Гбайт (12%)
Язык : English
Default : Нет
Forced : Нет
Текст #1
Идентификатор : 7
Формат : UTF-8
Идентификатор кодека : S_TEXT/UTF8
Идентификатор кодека/Информация : UTF-8 Plain Text
Язык : Russian
Default : Нет
Forced : Нет
Текст #2
Идентификатор : 8
Формат : UTF-8
Идентификатор кодека : S_TEXT/UTF8
Идентификатор кодека/Информация : UTF-8 Plain Text
Язык : English
Default : Нет
Forced : Нет



_________________
Проголосуй за трекер Открытый торрент трекер - RUS-MEDIA.ORG

Проголосуй Открытый торрент трекер - RUS-MEDIA.ORG


Вернуться к началу
 Профиль Отправить личное сообщение  
 
   Похожие торренты   Автор   Торрент   Размер 
В этой теме нет новых непрочитанных сообщений. Звездный путь / Star Trek [фантастика, боевик, приключения, 2009] BDRip, Dub

salma3

0 | 0

2.18 ГБ

В этой теме нет новых непрочитанных сообщений. Звездный путь / Star Trek [фантастика, боевик, приключения, 2009] HDRip, Dub

salma3

17 | 3

1.45 ГБ

В этой теме нет новых непрочитанных сообщений. Звездный путь / Star Trek [Фантастика, боевик, приключения, 2009] UHD BDRemux 2160p, Dub [4K] [Лицензия]

salma3

14 | 13

54.71 ГБ

В этой теме нет новых непрочитанных сообщений. Звёздный путь: Дискавери / Star Trek: Discovery [S01] [Приключения, фантастика, 2017] WEBRip 1080p, Mvo [IdeaFilm]

salma3

1 | 2

56.33 ГБ

В этой теме нет новых непрочитанных сообщений. Звездный путь: Глубокий космос 9 / Star Trek: Deep Space Nine [S01-07] [Фантастика, 1993-1998] WEBDL-AVC, Mvo [SDI Media]

salma3

21 | 36

56.47 ГБ

В этой теме нет новых непрочитанных сообщений. Звёздный путь: Дискавери / Star Trek: Discovery [S01] [Приключения, фантастика, 2017] WEBRip, Mvo [IdeaFilm]

salma3

2 | 9

10.35 ГБ

В этой теме нет новых непрочитанных сообщений. Звёздный путь: Дискавери / Star Trek: Discovery [01x01-09 из 15] [Приключения, фантастика, 2017] WEB-DL 720p, Mvo [LostFilm]

salma3

0 | 0

8.1 ГБ


Начать новую тему Ответить на тему  [ 1 сообщение ] 




Для Мосгорсуда, Роскомнадзора и рекламодателей:: mosgorsud-torrent[собачка]yandex.ru
cron