Торрент файл
скачать торрент магнет ссылка Добавлен: 19 сен 2016, 01:46
Размер: 5.39 ГБ
Сидеров: 695
Личеров: 108
Автор

СообщениеДобавлено: 19 сен 2016, 01:46 

Не в сети
Супермодератор
Аватара пользователя
Дата регистрации:
15 фев 2012, 16:44
Возраст: 28
Спасибо: 7205 / 2147
Сообщения: 65364
Год выпуска: 2016
Страна: США, Гонконг, Китай, Канада
Жанр: фантастика, боевик, комедия, приключения
Продолжительность: 01:52:07
Перевод: Профессиональный (полное дублирование) [Лицензия]
Cубтитры: русские (форсированные)
Режиссер: Дэйв Грин / Dave Green

В ролях: Меган Фокс, Уилл Арнетт, Лора Линни, Стивен Амелл, Ноэль Фишер, Джереми Ховард, Пит Пложек, Алан Ричсон, Тайлер Перри, Брайан Ти

Описание: Долгое время черепашки-ниндзя скрывались от людей в лабиринтах городской канализации. На протяжении нескольких лет учитель Сплинтер обучал их боевым искусствам и прививал им чувство справедливости. В один прекрасный момент им пришлось подняться наверх, чтобы спасти Нью-Йорк от Шредера, предводителя Клана Футов, захватившего власть в Нью-Йорке. Вместе с отважным репортером Эйприл и ее оператором Верном, бесстрашные воины смогли одержать победу и очистить любимый город от преступности. Леонардо, Микеланджело, Рафаэль и Донателло нашли свое предназначение в этом мире и стали защитниками своего города. Они навели порядок в Нью-Йорке и с чистой совестью могли отправиться на покой, но однажды им вновь пришлось столкнуться с могущественным врагом, угрожающим их городу.

Качество видео: BDRip 720p (EbP)
Формат видео: MKV
Видео: 1280х534, 23.976 fps, AVC ~6106 kbps avg
Аудио: 48 kHz, AC3 Dolby Digital, 3/2 (L,C,R,l,r) + LFE ch, ~640 kbps

Релиз от:


Код:
Teenage Mutant Ninja Turtles Out of the Shadows 2016 720p_BDRip_[scarabey.org].mkv
Формат                                   : Matroska
Версия формата                           : Version 4 / Version 2
Размер файла                             : 5,39 Гбайт
Продолжительность                        : 1 ч. 52 м.
Общий поток                              : 6883 Кбит/сек
Дата кодирования                         : UTC 2016-09-12 15:28:20
Программа кодирования                    : mkvmerge v6.1.0 ('Old Devil') built on Mar  4 2013 09:10:42
Библиотека кодирования                   : libebml v1.3.0 + libmatroska v1.4.0
Видео
Идентификатор                            : 1
Формат                                   : AVC
Формат/Информация                        : Advanced Video Codec
Профиль формата                          : High@L4.1
Параметр CABAC формата                   : Да
Параметр ReFrames формата                : 12 кадров
Идентификатор кодека                     : V_MPEG4/ISO/AVC
Продолжительность                        : 1 ч. 52 м.
Битрейт                                  : 6106 Кбит/сек
Ширина                                   : 1280 пикселей
Высота                                   : 534 пикселя
Соотношение сторон                       : 2,40:1
Режим частоты кадров                     : Постоянный
Частота кадров                           : 23,976 (24000/1001) кадра/сек
Цветовое пространство                    : YUV
Субдискретизация насыщенности            : 4:2:0
Битовая глубина                          : 8 бит
Тип развёртки                            : Прогрессивная
Бит/(Пиксели*Кадры)                      : 0.373
Размер потока                            : 4,78 Гбайт (89%)
Библиотека кодирования                   : x264 core 142 r2431+42 c69a006 tMod [8-bit@4:2:0 X86_64]
Настройки программы                      : cabac=1 / ref=12 / deblock=1:-3:-3 / analyse=0x3:0x133 / me=umh / subme=10 / psy=1 / fade_compensate=0.00 / psy_rd=1.00:0.00 / mixed_ref=1 / me_range=32 / chroma_me=1 / trellis=2 / 8x8dct=1 / cqm=0 / deadzone=21,11 / fast_pskip=0 / chroma_qp_offset=-2 / threads=12 / lookahead_threads=2 / sliced_threads=0 / nr=0 / decimate=0 / interlaced=0 / bluray_compat=0 / constrained_intra=0 / fgo=0 / bframes=8 / b_pyramid=2 / b_adapt=2 / b_bias=0 / direct=3 / weightb=1 / open_gop=0 / weightp=2 / keyint=250 / keyint_min=23 / scenecut=40 / intra_refresh=0 / rc_lookahead=60 / rc=crf / mbtree=0 / crf=17.0000 / qcomp=0.60 / qpmin=0:0:0 / qpmax=69:69:69 / qpstep=4 / vbv_maxrate=50000 / vbv_bufsize=62500 / crf_max=0.0 / nal_hrd=none / filler=0 / ip_ratio=1.35 / pb_ratio=1.25 / aq=3:0.88 / aq-sensitivity=10.00 / aq-factor=1.00:1.00:1.00 / aq2=0 / aq3=0
Default                                  : Да
Forced                                   : Нет
Аудио
Идентификатор                            : 2
Формат                                   : AC-3
Формат/Информация                        : Audio Coding 3
Расширение режима                        : CM (complete main)
Параметр Endianness формата              : Big
Идентификатор кодека                     : A_AC3
Продолжительность                        : 1 ч. 52 м.
Вид битрейта                             : Постоянный
Битрейт                                  : 640 Кбит/сек
Каналы                                   : 6 каналов
Расположение каналов                     : Front: L C R, Side: L R, LFE
Частота                                  : 48,0 КГц
Частота кадров                           : 31,250 кадров/сек (1536 spf)
Метод сжатия                             : С потерями
Размер потока                            : 513 Мбайт (9%)
Заголовок                                : Дубляж - Лицензия
Язык                                     : Russian
Default                                  : Да
Forced                                   : Нет
Текст
Идентификатор                            : 3
Формат                                   : UTF-8
Идентификатор кодека                     : S_TEXT/UTF8
Идентификатор кодека/Информация          : UTF-8 Plain Text
Заголовок                                : Русские, форсированные
Язык                                     : Russian
Default                                  : Да
Forced                                   : Нет
Меню
00:00:00.000                             : en:00:00:00.000
00:05:55.564                             : en:00:05:55.564
00:12:18.571                             : en:00:12:18.571
00:18:53.507                             : en:00:18:53.507
00:26:38.096                             : en:00:26:38.096
00:33:14.492                             : en:00:33:14.492
00:38:56.459                             : en:00:38:56.459
00:44:11.190                             : en:00:44:11.190
00:49:40.311                             : en:00:49:40.311
00:55:40.629                             : en:00:55:40.629
01:02:01.259                             : en:01:02:01.259
01:04:51.971                             : en:01:04:51.971
01:14:32.760                             : en:01:14:32.760
01:21:18.415                             : en:01:21:18.415
01:28:10.160                             : en:01:28:10.160
01:36:58.229                             : en:01:36:58.229
01:41:52.023                             : en:01:41:52.023
01:46:20.874                             : en:01:46:20.874



_________________
Проголосуй за трекер Открытый торрент трекер - RUS-MEDIA.ORG

Проголосуй Открытый торрент трекер - RUS-MEDIA.ORG


Вернуться к началу
 Профиль Отправить личное сообщение  
 
   Похожие торренты   Автор   Торрент   Размер 
В этой теме нет новых непрочитанных сообщений. Черепашки-ниндзя 2 / Teenage Mutant Ninja Turtles: Out of the Shadows [фантастика, боевик, комедия, приключения, 2016] BDRip, Dub [Лицензия]

salma3

1231 | 50

1.46 ГБ

В этой теме нет новых непрочитанных сообщений. Черепашки-ниндзя 2 / Teenage Mutant Ninja Turtles: Out of the Shadows [фантастика, боевик, комедия, приключения, 2016] BDRip, Dub [Лицензия]

salma3

223 | 6

2.18 ГБ

В этой теме нет новых непрочитанных сообщений. Черепашки-ниндзя 2 / Teenage Mutant Ninja Turtles: Out of the Shadows [фантастика, боевик, комедия, приключения, 2016] WEB-DL 720p, Dub [iTunes]

marya111

778 | 14

3.58 ГБ

В этой теме нет новых непрочитанных сообщений. Черепашки-ниндзя 2 / Teenage Mutant Ninja Turtles: Out of the Shadows [фантастика, боевик, комедия, приключения, 2016] WEB-DLRip, Dub [iTunes]

salma3

10896 | 230

1.46 ГБ

В этой теме нет новых непрочитанных сообщений. Черепашки-ниндзя 2 3Д / Teenage Mutant Ninja Turtles: Out of the Shadows 3D [фантастика, боевик, комедия, 2016] BDRip 1080, Dub [3D-Video]

salma3

59 | 34

6.37 ГБ

В этой теме нет новых непрочитанных сообщений. Черепашки-ниндзя 2 / Teenage Mutant Ninja Turtles: Out of the Shadows [фантастика, фэнтези, боевик, комедия, приключения, 2016] WEB-DL 1080p, Dub [iTunes]

marya111

1445 | 15

3.99 ГБ

В этой теме нет новых непрочитанных сообщений. Черепашки-ниндзя 2 / Teenage Mutant Ninja Turtles: Out of the Shadows [Фантастика, Боевик, Комедия, 2016] UHD Blu-ray 2160p, Dub [4K]

salma3

11 | 31

64.44 ГБ


Начать новую тему Ответить на тему  [ 1 сообщение ] 




Для Мосгорсуда, Роскомнадзора и рекламодателей:: mosgorsud-torrent[собачка]yandex.ru
cron