Торрент файл
скачать торрент магнет ссылка Добавлен: 18 сен 2016, 21:39
Размер: 6.59 ГБ
Сидеров: 7
Личеров: 2
Автор

СообщениеДобавлено: 18 сен 2016, 21:39 

Не в сети
Супермодератор
Аватара пользователя
Дата регистрации:
15 фев 2012, 16:44
Возраст: 29
Спасибо: 7328 / 2147
Сообщения: 73261
Год выхода: 2011
Жанр: Ужасы
Режиссер: Адам Гираш

В ролях: Лейша Хейли, Гейл Морган Харольд III, Челси Росс, ДжоНелл Кеннеди, Стефани Браун, Сигал Дайэмант, Адам Гираш, Клинт Кертис, Нил Каннингэм, Род МакКалло

О фильме:
После того, как у Эмили случился выкидыш, она с мужем Нэтом Уивером переехала из Нью-Йорка в штат Нью-Гемпшир. В старом доме в провинции они хотели оправиться от постигшего семью несчастья. Но однажды мастера, чинившие канализацию, обнаружили под их жилищем человеческий скелет. Вероятно, эта находка связана с давними трагическими событиями: в середине XIX века Мэри — жена тогдашнего хозяина дома Уильяма Уивера пропала без вести вместе с маленьким ребенком. Тем временем Эмили вновь беременна. Однако радость омрачают обнаруженные газетные вырезки со сведениями о владельцах дома. Оказывается, на протяжении нескольких поколений в семье Уиверов при загадочных обстоятельствах погибают женщины и их маленькие дети. Дом все более пугает будущую мать, а в поведении Нэта обнаруживаются зловещие странности…

Страна: США
Продолжительность: 01:31:13
Перевод: Профессиональный [многоголосый, закадровый]

Файл
Кодек: h.264
Качество: HDTV 1080i
Видео: MPEG-4 AVC, ~ 9180 Кбит/с, 1920x1080, 25.000 кадр/с
Звук:
Русский (AC3, 6 ch, 448 Кбит/с) / Профессиональный многоголосый
Русский (MP2, 2 ch, 192 Кбит/с) / Профессиональный многоголосый
Семпл
Автор релиза - Silverok, первоисточник - Кинопоказ HD1
General
ID : 1 (0x1)
Complete name : D:uTorrentPlodorodnaja.pocva.2011.HDTV.1080i.MediaClub.ts
Format : MPEG-TS
File size : 6.59 GiB
Duration : 1 h 31 min
Overall bit rate mode : Variable
Overall bit rate : 10.3 Mb/s
Video
ID : 3021 (0xBCD)
Menu ID : 1234 (0x4D2)
Format : AVC
Format/Info : Advanced Video Codec
Format profile : Main@L4
Format settings, CABAC : Yes
Format settings, ReFrames : 4 frames
Format settings, GOP : M=1, N=32
Codec ID : 27
Duration : 1 h 31 min
Bit rate : 9 180 kb/s
Width : 1 920 pixels
Height : 1 080 pixels
Display aspect ratio : 16:9
Frame rate : 25.000 FPS
Color space : YUV
Chroma subsampling : 4:2:0
Bit depth : 8 bits
Scan type : Interlaced
Scan type, store method : Separated fields
Scan order : Top Field First
Bits/(Pixel*Frame) : 0.177
Stream size : 5.85 GiB (89%)
Color range : Limited
Color primaries : BT.709
Transfer characteristics : BT.709
Matrix coefficients : BT.709
Audio #1
ID : 3022 (0xBCE)
Menu ID : 1234 (0x4D2)
Format : AC-3
Format/Info : Audio Coding 3
Mode extension : CM (complete main)
Format settings, Endianness : Big
Codec ID : 6
Duration : 1 h 31 min
Bit rate mode : Constant
Bit rate : 448 kb/s
Channel(s) : 6 channels
Channel positions : Front: L C R, Side: L R, LFE
Sampling rate : 48.0 kHz
Frame rate : 31.250 FPS (1536 spf)
Compression mode : Lossy
Stream size : 292 MiB (4%)
Language : Russian
Audio #2
ID : 3023 (0xBCF)
Menu ID : 1234 (0x4D2)
Format : MPEG Audio
Format version : Version 1
Format profile : Layer 2
Codec ID : 3
Duration : 1 h 31 min
Bit rate mode : Constant
Bit rate : 192 kb/s
Channel(s) : 2 channels
Sampling rate : 48.0 kHz
Compression mode : Lossy
Stream size : 125 MiB (2%)
Language : Russian

Релиз от: | Silverok


_________________
Проголосуй за трекер Открытый торрент трекер - RUS-MEDIA.ORG

Проголосуй Открытый торрент трекер - RUS-MEDIA.ORG


Вернуться к началу
 Профиль Отправить личное сообщение  
 
   Похожие торренты   Автор   Торрент   Размер 
В этой теме нет новых непрочитанных сообщений. Даркнет / Darknet [S01] [ужасы, триллер, 2013] HDTV 1080i, Dvo

salma3

19 | 27

6.82 ГБ

В этой теме нет новых непрочитанных сообщений. Летучие мыши / Bats [ужасы, триллер, 1999] HDTV 1080i, Mvo+Sub

salma3

42 | 14

5.41 ГБ

В этой теме нет новых непрочитанных сообщений. Соблюдение / Observance [Ужасы, триллер, детектив, 2015] HDTV 1080i, Mvo

salma3

321 | 73

3.26 ГБ

В этой теме нет новых непрочитанных сообщений. Театр крови / Theater of Blood [ужасы, комедия, 1973] HDTV 1080i, Mvo

salma3

27 | 27

7.77 ГБ

В этой теме нет новых непрочитанных сообщений. Расчлененное тело / Body Parts [ужасы, триллер, 1991] HDTV 1080i, Mvo

salma3

25 | 11

2.78 ГБ

В этой теме нет новых непрочитанных сообщений. Призраки / Wind Chill [ужасы, триллер, драма, 2007] HDTV 1080i, Mvo

salma3

222 | 55

3.64 ГБ

В этой теме нет новых непрочитанных сообщений. Пища богов / The Food Of The Gods [ужасы, фантастика, 1976] HDTV 1080i, Dvo [НТВ +]

salma3

19 | 48

4.38 ГБ


Начать новую тему Ответить на тему  [ 1 сообщение ] 




Для Мосгорсуда, Роскомнадзора и рекламодателей:: mosgorsud-torrent[собачка]yandex.ru
cron