Торрент файл
скачать торрент магнет ссылка Добавлен: 31 авг 2016, 10:57
Размер: 2.87 ГБ
Сидеров: 0
Личеров: 0
Автор

СообщениеДобавлено: 31 авг 2016, 10:57 

Не в сети
Супермодератор
Аватара пользователя
Дата регистрации:
15 фев 2012, 16:44
Возраст: 28
Спасибо: 6643 / 2146
Сообщения: 45809
Год выхода: 2001
Жанр: ужасы, фантастика, триллер
Режиссер: Джеймс Исаак

В ролях: Кэйн Ходдер, Лекса Дойг, Чак Кэмпбелл, Лиза Райдер, Питер Менса, Мелисса Эди, Дервин Джордан, Джонатан Поттс

О фильме: Группа студентов-археологов из новой колонии «Земля-2» прилетает на Старую Землю, давно уже ставшую токсичной пустыней, чтобы исследовать древние останки прошлых цивилизаций. Студенты находят два замороженных криогеном тела, хранящихся около 400 лет в старом исследовательском центре.
Обрадованная своей находкой команда забирает тела с собой. Одно из тел принадлежит серийному убийце Джейсону Вурхису. Студенты не подозревают, с какой смертельной опасностью им предстоит столкнуться, хотя дальнейшее развитие событий не трудно предугадать. Джейсон самостоятельно реанимируется прямо на корабле и, быстро расправившись с небольшим отрядом спецназа, начинает охоту на студентов…



Страна: США
Продолжительность: 01:27:48
Перевод: Профессиональный (многоголосый закадровый)

Файл
Качество: WEB-DL 720p
Формат: MKV
Видео: AVC, 3594 kb/s, 1328x720
Звук: Russian / English: AC3, 448 kb/s (6 ch), English: AC3, 192 kb/s (2 ch)
Субтитры: Russian, English
Дополнительно: Сохранены оригинальные главы (чаптеры)

Релиз от:
Format : Matroska
Format version : Version 4 / Version 2
File size : 2.87 GiB
Duration : 1 h 27 min
Overall bit rate : 4 685 kb/s
Movie name : Rip by basma4i
Encoded date : UTC 2016-08-30 10:46:16
Writing application : mkvmerge v9.3.1 ('Mask Machine') 64bit
Writing library : libebml v1.3.4 + libmatroska v1.4.5 / Lavf57.41.100
Cover : Yes
Attachments : cover.jpg
ENCODING_INFO : DVD > MKV 720p / MPEG2 > X264 ABR 3700kbps Произвольный / AC3 > AC3 CBR 480kbps / AC3 > AC3 CBR 480kbps / AC3 > AC3 CBR 192kbps
Video
ID : 1
Format : AVC
Format/Info : Advanced Video Codec
Format profile : Main@L4.1
Format settings, CABAC : Yes
Format settings, ReFrames : 6 frames
Codec ID : V_MPEG4/ISO/AVC
Duration : 1 h 27 min
Bit rate : 3 594 kb/s
Width : 1 328 pixels
Height : 720 pixels
Display aspect ratio : 1.85:1
Frame rate mode : Constant
Frame rate : 25.000 FPS
Color space : YUV
Chroma subsampling : 4:2:0
Bit depth : 8 bits
Scan type : Progressive
Bits/(Pixel*Frame) : 0.150
Stream size : 2.20 GiB (77%)
Language : English
Default : Yes
Forced : No
Audio #1
ID : 2
Format : AC-3
Format/Info : Audio Coding 3
Mode extension : CM (complete main)
Format settings, Endianness : Big
Codec ID : A_AC3
Duration : 1 h 27 min
Bit rate mode : Constant
Bit rate : 448 kb/s
Channel(s) : 6 channels
Channel positions : Front: L C R, Side: L R, LFE
Sampling rate : 48.0 kHz
Frame rate : 31.250 FPS (1536 spf)
Compression mode : Lossy
Stream size : 281 MiB (10%)
Language : Russian
Default : No
Forced : No
Audio #2
ID : 3
Format : AC-3
Format/Info : Audio Coding 3
Mode extension : CM (complete main)
Format settings, Endianness : Big
Codec ID : A_AC3
Duration : 1 h 27 min
Bit rate mode : Constant
Bit rate : 448 kb/s
Channel(s) : 6 channels
Channel positions : Front: L C R, Side: L R, LFE
Sampling rate : 48.0 kHz
Frame rate : 31.250 FPS (1536 spf)
Compression mode : Lossy
Stream size : 281 MiB (10%)
Language : English
Default : Yes
Forced : No
Audio #3
ID : 4
Format : AC-3
Format/Info : Audio Coding 3
Mode extension : CM (complete main)
Format settings, Endianness : Big
Codec ID : A_AC3
Duration : 1 h 27 min
Bit rate mode : Constant
Bit rate : 192 kb/s
Channel(s) : 2 channels
Channel positions : Front: L R
Sampling rate : 48.0 kHz
Frame rate : 31.250 FPS (1536 spf)
Compression mode : Lossy
Stream size : 121 MiB (4%)
Language : English
Default : No
Forced : No
Text #1
ID : 5
Format : UTF-8
Codec ID : S_TEXT/UTF8
Codec ID/Info : UTF-8 Plain Text
Duration : 1 h 23 min
Bit rate : 57 b/s
Count of elements : 767
Stream size : 34.8 KiB (0%)
Language : Russian
Default : Yes
Forced : No
Text #2
ID : 6
Format : UTF-8
Codec ID : S_TEXT/UTF8
Codec ID/Info : UTF-8 Plain Text
Duration : 1 h 23 min
Bit rate : 43 b/s
Count of elements : 848
Stream size : 26.6 KiB (0%)
Language : English
Default : No
Forced : No
Menu
00:00:00.000 : :Глава 1
00:02:57.360 : :Глава 2
00:05:37.600 : :Глава 3
00:06:41.120 : :Глава 4
00:06:53.000 : :Глава 5
00:09:12.800 : :Глава 6
00:13:26.520 : :Глава 7
00:16:51.400 : :Глава 8
00:22:27.040 : :Глава 9
00:24:55.080 : :Глава 10
00:28:42.880 : :Глава 11
00:28:53.040 : :Глава 12
00:29:32.240 : :Глава 13
00:29:54.360 : :Глава 14
00:33:23.840 : :Глава 15
00:33:36.480 : :Глава 16
00:33:54.640 : :Глава 17
00:36:07.080 : :Глава 18
00:37:16.840 : :Глава 19
00:37:17.480 : :Глава 20
00:39:36.240 : :Глава 21
00:42:17.920 : :Глава 22
00:42:33.880 : :Глава 23
00:43:00.560 : :Глава 24
00:43:32.520 : :Глава 25
00:44:53.040 : :Глава 26
00:47:05.760 : :Глава 27
00:47:55.960 : :Глава 28
00:49:21.320 : :Глава 29
00:51:15.440 : :Глава 30
00:51:53.040 : :Глава 31
00:53:48.080 : :Глава 32
00:54:46.080 : :Глава 33
00:56:25.520 : :Глава 34
01:00:36.800 : :Глава 35
01:01:13.160 : :Глава 36
01:01:31.560 : :Глава 37
01:02:08.800 : :Глава 38
01:02:11.000 : :Глава 39
01:02:45.120 : :Глава 40
01:05:32.800 : :Глава 41
01:06:01.600 : :Глава 42
01:09:00.000 : :Глава 43
01:11:44.440 : :Глава 44
01:12:08.480 : :Глава 45
01:12:13.680 : :Глава 46
01:13:00.920 : :Глава 47
01:14:27.400 : :Глава 48
01:15:15.200 : :Глава 49
01:17:44.480 : :Глава 50
01:19:26.440 : :Глава 51
01:20:19.800 : :Глава 52
01:20:20.520 : :Глава 53
01:22:52.280 : :Глава 54
01:23:26.320 : :Глава 55
01:23:51.000 : :Глава 56


_________________
Проголосуй за трекер Открытый торрент трекер - RUS-MEDIA.ORG

Проголосуй Открытый торрент трекер - RUS-MEDIA.ORG



реклама партнёра


Вернуться к началу
 Профиль Отправить личное сообщение  
 
   Похожие торренты   Автор   Торрент   Размер 
В этой теме нет новых непрочитанных сообщений. Джейсон Борн / Jason Bourne ( боевик, триллер, 2016) BDRip 720p | D, A

marya111

133 | 29

8.35 ГБ

В этой теме нет новых непрочитанных сообщений. Джейсон Борн / Jason Bourne [боевик, триллер, 2016] BDRip 720p, Dub [Лицензия]

salma3

103 | 2

7.8 ГБ

В этой теме нет новых непрочитанных сообщений. Джейсон Борн / Jason Bourne (Пол Гринграсс) [2016, боевик, триллер, BDRip 720p | Лицензия] Dub

marya111

1242 | 97

7.9 ГБ

В этой теме нет новых непрочитанных сообщений. Джейсон Вурхиз против Майкла Майерса / Jason Voorhees vs. Michael Myers (Трент Дункан) [2015, Короткометражный, Ужасы, Триллер, WEBRip-AVC | Яроцкий] avo

Dracon

169 | 2

151.53 МБ

В этой теме нет новых непрочитанных сообщений. Джейсон Борн / Jason Bourne [боевик, триллер, 2016] HDTVRip, avo

marya111

70 | 2

749.59 МБ

В этой теме нет новых непрочитанных сообщений. Джейсон Борн / Jason Bourne [Боевик, триллер, 2016] DVD9, Dub

salma3

109 | 52

7.58 ГБ

В этой теме нет новых непрочитанных сообщений. Джейсон Борн / Jason Bourne [боевик, триллер, 2016] Blu-ray CEE 1080p, Dub [Лицензия]

salma3

17 | 17

45.32 ГБ


Начать новую тему Ответить на тему  [ 1 сообщение ] 




Для Мосгорсуда, Роскомнадзора и рекламодателей:: mosgorsud-torrent[собачка]yandex.ru