Торрент файл
скачать торрент магнет ссылка Добавлен: 30 авг 2016, 12:06
Размер: 8.71 ГБ
Сидеров: 0
Личеров: 7
Автор

СообщениеДобавлено: 30 авг 2016, 12:06 

Не в сети
Супермодератор
Аватара пользователя
Дата регистрации:
15 фев 2012, 16:44
Возраст: 28
Спасибо: 6642 / 2146
Сообщения: 45738
Страна: Япония
Производство: Toho Company
Год выпуска: 2002
Жанр: фантастика, боевик, триллер
Продолжительность: 01:28:15
Режиссер: Масааки Тезука
Автор сценария: Ватару Мимура

В ролях: Юмико Шаку, Син Такума, Кана Онодера, Кох Такасуги, Юсукэ Томой, Юничи Мизуно, Акира Накао, Куми Мидзуно, Такео Накахара

Описание: Чтобы защитить страну от Годзиллы, если она вдруг опять нападёт на Японию, учёные сконструировали Механическую Годзиллу — гигантского управляемого робота, наделённого всеми функциями, имеющимися у живого монстра. В процессе создания робота были использованы полностью органические ткани организма монстра, выращенные искусственным образом из молекул ДНК Годзиллы, которые были сохранены с 1954 года, со времени первого нападения чудовища на Японию. Настоящий монстр Годзилла, конечно, просыпается и идёт крушить японцев. Те выставляют на бой Меха-Годзиллу...



Перевод: Профессиональный (двухголосый, закадровый)
Субтитры: русские, английские (для слабослышащих)

Качество: BDRip 1080p
Формат: MKV
Видео кодек: AVC
Аудио кодек: АС3 | DTS
Видео: 1920x816 (2.35:1), 23.976 fps, MPEG-4 AVC ~12.4 Мbps avg
Аудио №1: 48.0 kHz, AC3 Dolby Digital, 2/0 (L,R) ch, ~192 kbps | RUS
Аудио №2: 48.0 kHz, Digital Theater Systems, 3/2 (L,C,R,l,r) + LFE ch, ~1509 kbps | JAP
Формат субтитров: UTF-8 Plain Text
Дата премьеры (мир): 2 ноября 2002
General
Уникальный идентификатор : 200413328917184796479462387794656749118 (0x96C63401166455A6984C85610699E63E)
Полное имя : Годзилла против Мехагодзиллы.2002.BDRip.1080p.mkv
Формат : Matroska
Версия формата : Version 4 / Version 2
Размер файла : 8,71 Гбайт
Продолжительность : 1 ч. 28 м.
Общий поток : 14,1 Мбит/сек
Дата кодирования : UTC 2016-08-29 03:14:39
Программа кодирования : mkvmerge v8.2.0 ('World of Adventure') 64bit
Библиотека кодирования : libebml v1.3.1 + libmatroska v1.4.2
Видео
Идентификатор : 1
Формат : AVC
Формат/Информация : Advanced Video Codec
Профиль формата : High@L4.1
Параметр CABAC формата : Да
Параметр ReFrames формата : 4 кадра
Идентификатор кодека : V_MPEG4/ISO/AVC
Продолжительность : 1 ч. 28 м.
Битрейт : 12,4 Мбит/сек
Ширина : 1920 пикселей
Высота : 816 пикселей
Соотношение сторон : 2,35:1
Режим частоты кадров : Постоянный
Частота кадров : 23,976 (24000/1001) кадра/сек
Цветовое пространство : YUV
Субдискретизация насыщенности : 4:2:0
Битовая глубина : 8 бит
Тип развёртки : Прогрессивная
Бит/(Пиксели*Кадры) : 0.331
Размер потока : 7,66 Гбайт (88%)
Библиотека кодирования : x264 core 146 r2538 121396c
Настройки программы : cabac=1 / ref=4 / deblock=1:-3:-3 / analyse=0x3:0x113 / me=umh / subme=10 / psy=1 / psy_rd=1.00:0.15 / mixed_ref=1 / me_range=32 / chroma_me=1 / trellis=2 / 8x8dct=1 / cqm=0 / deadzone=21,11 / fast_pskip=1 / chroma_qp_offset=-3 / threads=6 / lookahead_threads=1 / sliced_threads=0 / nr=0 / decimate=1 / interlaced=0 / bluray_compat=0 / constrained_intra=0 / bframes=10 / b_pyramid=2 / b_adapt=2 / b_bias=0 / direct=1 / weightb=1 / open_gop=0 / weightp=2 / keyint=230 / keyint_min=23 / scenecut=40 / intra_refresh=0 / rc_lookahead=40 / rc=crf / mbtree=0 / crf=19.5 / qcomp=0.60 / qpmin=0 / qpmax=69 / qpstep=4 / vbv_maxrate=40000 / vbv_bufsize=50000 / crf_max=0.0 / nal_hrd=none / filler=0 / ip_ratio=1.40 / pb_ratio=1.30 / aq=1:1.00
Язык : Japanese
Default : Да
Forced : Нет
Аудио #1
Идентификатор : 2
Формат : AC-3
Формат/Информация : Audio Coding 3
Расширение режима : CM (complete main)
Параметр Endianness формата : Big
Идентификатор кодека : A_AC3
Продолжительность : 1 ч. 28 м.
Вид битрейта : Постоянный
Битрейт : 192 Кбит/сек
Каналы : 2 канала
Расположение каналов : Front: L R
Частота : 48,0 КГц
Частота кадров : 31,250 кадров/сек (1536 spf)
Метод сжатия : С потерями
Размер потока : 121 Мбайт (1%)
Заголовок : DVO
Язык : Russian
Default : Да
Forced : Нет
Аудио #2
Идентификатор : 3
Формат : DTS
Формат/Информация : Digital Theater Systems
Режим : 16
Параметр Endianness формата : Big
Идентификатор кодека : A_DTS
Продолжительность : 1 ч. 28 м.
Вид битрейта : Постоянный
Битрейт : 1509 Кбит/сек
Каналы : 6 каналов
Расположение каналов : Front: L C R, Side: L R, LFE
Частота : 48,0 КГц
Частота кадров : 93,750 кадра/сек (512 spf)
Битовая глубина : 24 бит
Метод сжатия : С потерями
Размер потока : 953 Мбайт (11%)
Заголовок : original
Язык : Japanese
Default : Нет
Forced : Нет
Текст #1
Идентификатор : 4
Формат : UTF-8
Идентификатор кодека : S_TEXT/UTF8
Идентификатор кодека/Информация : UTF-8 Plain Text
Продолжительность : 1 ч. 27 м.
Битрейт : 46 бит/сек
Count of elements : 730
Размер потока : 29,6 Кбайт (0%)
Заголовок : русские
Язык : Russian
Default : Нет
Forced : Нет
Текст #2
Идентификатор : 5
Формат : UTF-8
Идентификатор кодека : S_TEXT/UTF8
Идентификатор кодека/Информация : UTF-8 Plain Text
Продолжительность : 1 ч. 27 м.
Битрейт : 42 бит/сек
Count of elements : 862
Размер потока : 27,3 Кбайт (0%)
Заголовок : английские (для слабослышащих)
Язык : English
Default : Нет
Forced : Нет



_________________
Проголосуй за трекер Открытый торрент трекер - RUS-MEDIA.ORG

Проголосуй Открытый торрент трекер - RUS-MEDIA.ORG



реклама партнёра


Вернуться к началу
 Профиль Отправить личное сообщение  
 
   Похожие торренты   Автор   Торрент   Размер 
В этой теме нет новых непрочитанных сообщений. Годзилла против Мехагодзиллы 3 / Gojira X Mekagojira [фантастика, боевик, триллер, 2002] BDRip 720p, Dvo

salma3

1 | 4

3.31 ГБ

В этой теме нет новых непрочитанных сообщений. Годзилла: Возрождение / Shin Gojira [ужасы, фантастика, боевик, 2016] BDRip 720p, Mvo

salma3

760 | 405

4.75 ГБ

В этой теме нет новых непрочитанных сообщений. Годзилла: Возрождение / Shin Gojira [ужасы, фантастика, боевик, 2016] HDRip, Mvo

salma3

324 | 80

2.05 ГБ

В этой теме нет новых непрочитанных сообщений. Годзилла: Возрождение / Shin Gojira [ужасы, фантастика, боевик, 2016] HDRip, Mvo

salma3

1504 | 390

1.37 ГБ

В этой теме нет новых непрочитанных сообщений. Годзилла / Shin Gojira [ужасы, фантастика, боевик, драма, приключения, 2016] WEBRip, Dvo

salma3

2658 | 911

1.37 ГБ

В этой теме нет новых непрочитанных сообщений. Мега Акула против Колосса / Mega Shark vs. Kolossus (Кристофер Рэй) [2015, ужасы, фантастика, боевик, триллер, BDRip 720p] avo

Nickolas3435

217 | 13

3.68 ГБ

В этой теме нет новых непрочитанных сообщений. Куб 2: Гиперкуб / Cube 2: Hypercube [ужасы, фантастика, триллер, драма, 2002] BDRip 1080p, Mvo+Sub

salma3

78 | 30

8.57 ГБ


Начать новую тему Ответить на тему  [ 1 сообщение ] 




Для Мосгорсуда, Роскомнадзора и рекламодателей:: mosgorsud-torrent[собачка]yandex.ru