Торрент файл
скачать торрент магнет ссылка Добавлен: 26 авг 2016, 11:44
Размер: 7.21 ГБ
Сидеров: 1
Личеров: 2
Автор

СообщениеДобавлено: 26 авг 2016, 11:44 

Не в сети
Супермодератор
Аватара пользователя
Дата регистрации:
15 фев 2012, 16:44
Возраст: 28
Спасибо: 6642 / 2146
Сообщения: 45692
Год выхода: 2003
Страна: Мексика, Аргентина, Испания
Студия: Altavista Films, Arca Difusion, Cacerola Films
Продолжительность: 01:26:17
Жанр: боевик, драма, комедия, криминал
Режиссер: Уго Родригес

В ролях: Диего Луна, Лукас Креспи, Норман Сотолонго, Хесус Очоа, Марта Тенорио, Рафаэль Инклан, Роса Мария Бьянчи, Хосе Мария Яспик, Марта Белостеги, Эухенио Монтессоро, ...
Перевод:
- Профессиональный (двуголосый, закадровый) ?

О фильме: Компьютерный хакер и заядлый курильщик Лоло так увлечён своей соседкой Андреа, что тайно установил в её квартире шпионские устройства, позволяющие отслеживать буквально каждый её шаг. Андреа, обнаружив слежку, устроила в квартире Лоло настоящий погром. В результате вместо кода доступа к счетам в швейцарском банке Лоло в суматохе прихватил на важную встречу с русскими мафиози один из дисков с интимными деталями из жизни соседки…



Кодек: x264
Качество: BDRip 1080p
Видео: 1920x1080, 11000 kbps, 25 fps
Аудио #1: AC-3, 2 ch, 192 kbps (Rus) - DVO
Аудио #2: DTS, 6 ch, 768 kbps (Spa)
Субтитры: Русские, Английские

x264 [info]: frame I:849 Avg QP:10.27 size:181964
x264 [info]: frame P:28293 Avg QP:11.99 size: 98060
x264 [info]: frame B:100306 Avg QP:14.30 size: 41740
x264 [info]: consecutive B-frames: 1.9% 1.4% 21.5% 2.8% 2.2% 68.4% 1.5% 0.0% 0.2% 0.1% 0.0% 0.0% 0.1%
Общее
Уникальный идентификатор : 184636562639376272739813349171677706617 (0x8AE7B55F0CACBAC18DD9853FF7E13979)
Полное имя : Никотин (Nicotina) 2003 BDRip 1080p.mkv
Формат : Matroska
Версия формата : Version 2
Размер файла : 7,21 Гбайт
Продолжительность : 1 ч. 26 м.
Общий поток : 12,0 Мбит/сек
Дата кодирования : UTC 2016-08-19 20:06:40
Программа кодирования : mkvmerge v4.0.0 ('The Stars were mine') сборка от Jun 6 2010 16:18:42
Библиотека кодирования : libebml v1.0.0 + libmatroska v1.0.0
Видео
Идентификатор : 1
Формат : AVC
Формат/Информация : Advanced Video Codec
Профиль формата : High@L4.1
Параметр CABAC формата : Да
Параметр ReFrames формата : 4 кадра
Идентификатор кодека : V_MPEG4/ISO/AVC
Продолжительность : 1 ч. 26 м.
Битрейт : 11,0 Мбит/сек
Ширина : 1920 пикселей
Высота : 1080 пикселей
Соотношение сторон : 16:9
Режим частоты кадров : Постоянный
Частота кадров : 25,000 кадров/сек
Цветовое пространство : YUV
Субдискретизация насыщенности : 4:2:0
Битовая глубина : 8 бит
Тип развёртки : Прогрессивная
Бит/(Пиксели*Кадры) : 0.212
Размер потока : 6,49 Гбайт (90%)
Библиотека кодирования : x264 core 146 r2538 121396c
Настройки программы : cabac=1 / ref=4 / deblock=1:-3:-3 / analyse=0x3:0x133 / me=umh / subme=11 / psy=1 / psy_rd=1.00:0.00 / mixed_ref=1 / me_range=32 / chroma_me=1 / trellis=2 / 8x8dct=1 / cqm=0 / deadzone=21,11 / fast_pskip=0 / chroma_qp_offset=-2 / threads=12 / lookahead_threads=2 / sliced_threads=0 / nr=0 / decimate=0 / interlaced=0 / bluray_compat=0 / constrained_intra=0 / bframes=12 / b_pyramid=2 / b_adapt=2 / b_bias=0 / direct=3 / weightb=1 / open_gop=0 / weightp=2 / keyint=250 / keyint_min=25 / scenecut=40 / intra_refresh=0 / rc=2pass / mbtree=0 / bitrate=11000 / ratetol=1.0 / qcomp=0.60 / qpmin=0 / qpmax=69 / qpstep=4 / cplxblur=20.0 / qblur=0.5 / ip_ratio=1.40 / pb_ratio=1.30 / aq=1:0.80
Язык : Spanish
Default : Нет
Forced : Нет
Аудио #1
Идентификатор : 2
Формат : AC-3
Формат/Информация : Audio Coding 3
Расширение режима : CM (complete main)
Параметр Endianness формата : Big
Идентификатор кодека : A_AC3
Продолжительность : 1 ч. 26 м.
Вид битрейта : Постоянный
Битрейт : 192 Кбит/сек
Каналы : 2 канала
Расположение каналов : Front: L R
Частота : 48,0 КГц
Частота кадров : 31,250 кадров/сек (1536 spf)
Метод сжатия : С потерями
Размер потока : 119 Мбайт (2%)
Заголовок : DVO
Язык : Russian
Default : Нет
Forced : Нет
Аудио #2
Идентификатор : 3
Формат : DTS
Формат/Информация : Digital Theater Systems
Режим : 16
Параметр Endianness формата : Big
Идентификатор кодека : A_DTS
Продолжительность : 1 ч. 26 м.
Вид битрейта : Постоянный
Битрейт : 768 Кбит/сек
Каналы : 6 каналов
Расположение каналов : Front: L C R, Side: L R, LFE
Частота : 48,0 КГц
Частота кадров : 93,750 кадра/сек (512 spf)
Битовая глубина : 16 бит
Метод сжатия : С потерями
Размер потока : 474 Мбайт (6%)
Язык : Spanish
Default : Нет
Forced : Нет
Текст #1
Идентификатор : 4
Формат : UTF-8
Идентификатор кодека : S_TEXT/UTF8
Идентификатор кодека/Информация : UTF-8 Plain Text
Язык : Russian
Default : Нет
Forced : Нет
Текст #2
Идентификатор : 5
Формат : UTF-8
Идентификатор кодека : S_TEXT/UTF8
Идентификатор кодека/Информация : UTF-8 Plain Text
Язык : English
Default : Нет
Forced : Нет



_________________
Проголосуй за трекер Открытый торрент трекер - RUS-MEDIA.ORG

Проголосуй Открытый торрент трекер - RUS-MEDIA.ORG



реклама партнёра


Вернуться к началу
 Профиль Отправить личное сообщение  
 
   Похожие торренты   Автор   Торрент   Размер 
В этой теме нет новых непрочитанных сообщений. Одиночка / A Man Apart [боевик, триллер, криминал, драма, 2003] BDRip 1080p, Dub

salma3

15 | 3

4.36 ГБ

В этой теме нет новых непрочитанных сообщений. Синдром Альцгеймера / De zaak Alzheimer [боевик, триллер, драма, криминал, 2003] BDRip 1080p, Avo+Sub

salma3

14 | 2

11.92 ГБ

В этой теме нет новых непрочитанных сообщений. Великолепная афера / Matchstick Men [триллер, драма, комедия, криминал, 2003] BDRip 1080p, Dub

salma3

21 | 8

11.64 ГБ

В этой теме нет новых непрочитанных сообщений. Затоiчи / Zatôichi [Боевик, драма, комедия, 2003] BDRip 1080p, Dub

salma3

18 | 0

11.65 ГБ

В этой теме нет новых непрочитанных сообщений. Я завязал / Gettin' Square [триллер, комедия, криминал, 2003] BDRip 1080p, Mvo+Sub

salma3

180 | 104

9.16 ГБ

В этой теме нет новых непрочитанных сообщений. Вне времени / Out Of Time [триллер, драма, криминал, 2003] BDRip 1080p, Dub

salma3

169 | 28

5.77 ГБ

В этой теме нет новых непрочитанных сообщений. Вне времени / Out of Time [триллер, драма, криминал, 2003] BDRip 1080p, Dub

salma3

13 | 15

13.32 ГБ


Начать новую тему Ответить на тему  [ 1 сообщение ] 




Для Мосгорсуда, Роскомнадзора и рекламодателей:: mosgorsud-torrent[собачка]yandex.ru