Торрент файл
скачать торрент магнет ссылка Добавлен: 25 авг 2016, 11:22
Размер: 11.47 ГБ
Сидеров: 24
Личеров: 12
Автор

СообщениеДобавлено: 25 авг 2016, 11:22 

Не в сети
Супермодератор
Аватара пользователя
Дата регистрации:
15 фев 2012, 16:44
Возраст: 28
Спасибо: 7165 / 2147
Сообщения: 62221
Чужие на районе / Attack the Block
Страна: Великобритания Франция
Производство: Big Talk Productions, Film4, Studio Canal, UK Film Council
Год выпуска: 2011
Жанр: фантастика, боевик, триллер, комедия
Продолжительность: 01:27:44
Режиссер: Джо Корниш
Автор сценария: Джо Корниш

В ролях: Джоди Уиттакер, Джон Бойега, Алекс Эсмейл, Франц Драмех, Лион Джонс, Саймон Ховард, Люк Тредэвэй, Джумэйн Хантер

Описание: Инопланетное вторжение начинается… Но на этот раз пришельцев угораздило приземлиться не в том районе! Здесь всем заправляют реальные пацаны. Теперь они — последняя надежда человечества. Самые опасные существа во вселенной столкнутся с абсолютным злом. Кто кого..?



Перевод: Профессиональный (многоголосый, закадровый) | R5 / два вида
Субтитры: русские, английские

Качество: BDRip 1080p
Формат: MKV
Видео кодек: AVC
Аудио кодек: DTS
Видео: 1920x800 (2.40:1), 24.000 fps, MPEG-4 AVC ~13.8 Мbps avg
Аудио №1: 48.0 kHz, Digital Theater Systems, 3/2 (L,C,R,l,r) + LFE ch, ~1 510 kbps | RUS / MVO / цензурный
Аудио №2: 48.0 kHz, Digital Theater Systems, 3/2 (L,C,R,l,r) + LFE ch, ~1 510 kbps | RUS / MVO / нецензурный
Аудио №3: 48.0 kHz, Digital Theater Systems, 3/2 (L,C,R,l,r) + LFE ch, ~1 510 kbps | ENG
Формат субтитров: UTF-8 Plain Text
Бюджет: $13 000 000
Дата премьеры (мир): 12 марта 2011
Дата премьеры (РФ): 17 ноября 2011, «Вольга»ВНИМАНИЕ! аудиодорожка №2 MVO
содержит ненормативную лексику


Релиз от:
Complete name : Attack.The.Block.2011.1080p.BluRay.DTS.Rus.Eng.mkv
Format : Matroska
File size : 11.5 GiB
Duration : 1h 27mn
Overall bit rate : 18.7 Mbps
Movie name : nmd
Encoded date : UTC 2011-12-23 16:38:17
Writing application : mkvmerge v5.2.0 ('I can't explain') built on Dec 18 2011 18:12:03
Writing library : libebml v1.2.3 + libmatroska v1.3.0
Video
ID : 1
Format : AVC
Format/Info : Advanced Video Codec
Format profile : High@L4.1
Format settings, CABAC : Yes
Format settings, ReFrames : 5 frames
Muxing mode : Container profile=Unknown@4.1
Codec ID : V_MPEG4/ISO/AVC
Duration : 1h 27mn
Bit rate : 13.8 Mbps
Nominal bit rate : 14.2 Mbps
Width : 1 920 pixels
Height : 800 pixels
Display aspect ratio : 2.40:1
Frame rate : 24.000 fps
Resolution : 8 bits
Colorimetry : 4:2:0
Scan type : Progressive
Bits/(Pixel*Frame) : 0.375
Stream size : 8.47 GiB (74%)
Writing library : x264 core 119 r2106 07efeb4
Encoding settings : cabac=1 / ref=5 / deblock=1:-3:-3 / analyse=0x3:0x133 / me=umh / subme=11 / psy=1 / psy_rd=1.00:0.10 / mixed_ref=1 / me_range=48 / chroma_me=1 / trellis=2 / 8x8dct=1 / cqm=0 / deadzone=21,11 / fast_pskip=0 / chroma_qp_offset=-3 / threads=9 / sliced_threads=0 / nr=0 / decimate=1 / interlaced=0 / bluray_compat=0 / constrained_intra=0 / bframes=8 / b_pyramid=2 / b_adapt=2 / b_bias=0 / direct=3 / weightb=1 / open_gop=0 / weightp=2 / keyint=250 / keyint_min=23 / scenecut=40 / intra_refresh=0 / rc=2pass / mbtree=0 / bitrate=14200 / ratetol=1.0 / qcomp=0.60 / qpmin=0 / qpmax=69 / qpstep=4 / cplxblur=20.0 / qblur=0.5 / ip_ratio=1.40 / pb_ratio=1.30 / aq=1:1.00
Color primaries : BT.709-5, BT.1361, IEC 61966-2-4, SMPTE RP177
Transfer characteristics : BT.709-5, BT.1361
Matrix coefficients : BT.709-5, BT.1361, IEC 61966-2-4 709, SMPTE RP177
Audio #1
ID : 2
Format : DTS
Format/Info : Digital Theater Systems
Codec ID : A_DTS
Duration : 1h 27mn
Bit rate mode : Constant
Bit rate : 1 510 Kbps
Channel(s) : 6 channels
Channel positions : Front: L C R, Surround: L R, LFE
Sampling rate : 48.0 KHz
Resolution : 24 bits
Stream size : 947 MiB (8%)
Title : DTS 5.1 @ 1536 kbps |MVO, R5|
Language : Russian
Audio #2
ID : 3
Format : DTS
Format/Info : Digital Theater Systems
Codec ID : A_DTS
Duration : 1h 27mn
Bit rate mode : Constant
Bit rate : 1 510 Kbps
Channel(s) : 6 channels
Channel positions : Front: L C R, Surround: L R, LFE
Sampling rate : 48.0 KHz
Resolution : 24 bits
Stream size : 947 MiB (8%)
Title : DTS 5.1 @ 1536 kbps |MVO, R5 (без цензуры)|
Language : Russian
Audio #3
ID : 4
Format : DTS
Format/Info : Digital Theater Systems
Codec ID : A_DTS
Duration : 1h 27mn
Bit rate mode : Constant
Bit rate : 1 510 Kbps
Channel(s) : 6 channels
Channel positions : Front: L C R, Surround: L R, LFE
Sampling rate : 48.0 KHz
Resolution : 24 bits
Stream size : 947 MiB (8%)
Title : DTS 5.1 @ 1536 kbps
Text #1
ID : 5
Format : UTF-8
Codec ID : S_TEXT/UTF8
Codec ID/Info : UTF-8 Plain Text
Title : Voronine
Language : Russian
Text #2
ID : 6
Format : UTF-8
Codec ID : S_TEXT/UTF8
Codec ID/Info : UTF-8 Plain Text
Menu
00:00:00.000 : :00:00:00.000
00:08:12.708 : :00:08:12.708
00:16:05.250 : :00:16:05.250
00:21:54.125 : :00:21:54.125
00:29:45.542 : :00:29:45.542
00:37:39.000 : :00:37:39.000
00:41:27.583 : :00:41:27.583
00:50:21.250 : :00:50:21.250
01:00:51.333 : :01:00:51.333
01:06:26.958 : :01:06:26.958
01:13:33.125 : :01:13:33.125
01:20:06.042 : :01:20:06.042



_________________
Проголосуй за трекер Открытый торрент трекер - RUS-MEDIA.ORG

Проголосуй Открытый торрент трекер - RUS-MEDIA.ORG


Вернуться к началу
 Профиль Отправить личное сообщение  
 
   Похожие торренты   Автор   Торрент   Размер 
В этой теме нет новых непрочитанных сообщений. Чужие на районе / Attack the Block [фантастика, боевик, триллер, комедия, 2011] BDRemux 1080p, Mvo

salma3

10 | 6

20.54 ГБ

В этой теме нет новых непрочитанных сообщений. На районе / On My Block [S01] [Комедия, 2018] WEBRip, Mvo [Coldfilm]

salma3

0 | 0

2.64 ГБ

В этой теме нет новых непрочитанных сообщений. На районе / On My Block [S01] [Комедия, 2018] WEBRip 720p, Mvo [Coldfilm]

salma3

0 | 0

6.43 ГБ

В этой теме нет новых непрочитанных сообщений. Чужие / Aliens [ужасы, фантастика, боевик, триллер, 1986] BDRip-HEVC 1080p, Dub [Special Edition]

salma3

17 | 7

20.59 ГБ

В этой теме нет новых непрочитанных сообщений. Драка в блоке 99 / Brawl in Cell Block 99 [боевик, триллер, криминал, 2017] BDRip 1080p, Dub [Лицензия]

salma3

332 | 192

10.35 ГБ

В этой теме нет новых непрочитанных сообщений. Чужие среди нас / They Live [фантастика, боевик, триллер, 1988] BDRemux 1080p, Mvo

salma3

0 | 0

22.62 ГБ

В этой теме нет новых непрочитанных сообщений. Чужие среди нас / They Live [ужасы, фантастика, боевик, триллер, 1988] BDRip, Mvo

salma3

9 | 2

1.45 ГБ


Начать новую тему Ответить на тему  [ 1 сообщение ] 




Для Мосгорсуда, Роскомнадзора и рекламодателей:: mosgorsud-torrent[собачка]yandex.ru
cron