Торрент файл
скачать торрент магнет ссылка Добавлен: 25 авг 2016, 11:20
Размер: 6.21 ГБ
Сидеров: 15
Личеров: 5
Автор

СообщениеДобавлено: 25 авг 2016, 11:20 

Не в сети
Супермодератор
Аватара пользователя
Дата регистрации:
15 фев 2012, 16:44
Возраст: 28
Спасибо: 6642 / 2146
Сообщения: 45664
Год выхода: 1987
Жанр: Боевик, военный
Режиссер: Саммо Хунг

В ролях: Саммо Хунг, Юэнь Бяо, Хэйнг С. Нгор, Джойс Годензи, Чи Чун Ха, Чинг-Йинг Лам, Мелвин Вонг, Чарли Чин

О фильме:
Когда американцы покидали Вьетнам, был оставлен секретный запас ракет и стратегического оружия, который не обнаружила вьетнамская армия. В 1976 году полковник армии США Лам получает задание уничтожить склад, прежде чем ракеты попадут в руки врага. Он набирает команду из китайских и вьетнамских заключенных. Всем, кто уцелеет, обещана свобода. После десантирования на территории Вьетнама, весь их путь по вражеской территории сопровождается постоянными стычками с вьетнамскими регулярными войсками во главе с безумным генералом…

Страна: Гонконг
Продолжительность: 01:37:53
Перевод: Авторский одноголосый закадровый (Кашкин)
Файл
Кодек: AVC, x264
Качество: BD-Rip 1080p
Видео: 1920x816 (2.35:1), 8888 kbps, 23,976 fps
Звук: AC-3, 192 kbps, 48 KHz, 2 channels
General
Unique ID : 213669424509834186333536851915720742696 (0xA0BF3BFA30A98C1BB37016195CD9D728)
Complete name : E.Film.Восточные кондоры [Dung fong tuk ying, 1987] 1080p.mkv
Format : Matroska
Format version : Version 2
File size : 6.21 GiB
Duration : 1h 37mn
Overall bit rate : 9 081 Kbps
Encoded date : UTC 2016-08-23 20:39:22
Writing application : mkvmerge v5.2.1 ('A Far Off Place') built on Jan 2 2012 23:21:10
Writing library : libebml v1.2.3 + libmatroska v1.3.0
Video
ID : 1
Format : AVC
Format/Info : Advanced Video Codec
Format profile : High@L4.1
Format settings, CABAC : Yes
Format settings, ReFrames : 5 frames
Muxing mode : Header stripping
Codec ID : V_MPEG4/ISO/AVC
Duration : 1h 37mn
Bit rate : 8 888 Kbps
Width : 1 920 pixels
Height : 816 pixels
Display aspect ratio : 2.35:1
Frame rate mode : Constant
Frame rate : 23.976 (24000/1001) fps
Color space : YUV
Chroma subsampling : 4:2:0
Bit depth : 8 bits
Scan type : Progressive
Bits/(Pixel*Frame) : 0.237
Stream size : 5.95 GiB (96%)
Title : Eastern Condors
Writing library : x264 core 120 r2164 da19765
Encoding settings : cabac=1 / ref=5 / deblock=1:0:0 / analyse=0x3:0x113 / me=umh / subme=8 / psy=1 / psy_rd=1.00:0.00 / mixed_ref=1 / me_range=16 / chroma_me=1 / trellis=1 / 8x8dct=1 / cqm=0 / deadzone=21,11 / fast_pskip=1 / chroma_qp_offset=-2 / threads=3 / sliced_threads=0 / nr=0 / decimate=1 / interlaced=0 / bluray_compat=0 / constrained_intra=0 / bframes=3 / b_pyramid=2 / b_adapt=2 / b_bias=0 / direct=3 / weightb=1 / open_gop=0 / weightp=2 / keyint=240 / keyint_min=23 / scenecut=40 / intra_refresh=0 / rc_lookahead=50 / rc=2pass / mbtree=1 / bitrate=8888 / ratetol=1.0 / qcomp=0.60 / qpmin=0 / qpmax=69 / qpstep=4 / cplxblur=20.0 / qblur=0.5 / ip_ratio=1.40 / aq=1:1.00
Language : English
Default : Yes
Forced : No
Audio
ID : 2
Format : AC-3
Format/Info : Audio Coding 3
Format profile : Dolby Digital
Mode extension : CM (complete main)
Format settings, Endianness : Big
Muxing mode : Header stripping
Codec ID : A_AC3
Duration : 1h 37mn
Bit rate mode : Constant
Bit rate : 192 Kbps
Channel(s) : 2 channels
Channel positions : Front: L R
Sampling rate : 48.0 KHz
Frame rate : 31.250 fps (1536 spf)
Compression mode : Lossy
Stream size : 134 MiB (2%)
Title : Кашкин
Language : Russian
Default : Yes
Forced : No



_________________
Проголосуй за трекер Открытый торрент трекер - RUS-MEDIA.ORG

Проголосуй Открытый торрент трекер - RUS-MEDIA.ORG



реклама партнёра


Вернуться к началу
 Профиль Отправить личное сообщение  
 
   Похожие торренты   Автор   Торрент   Размер 
В этой теме нет новых непрочитанных сообщений. Восточные кондоры / Dung fong tuk ying [Боевик, драма, военный, 1987] HDRip, Avo

salma3

10 | 0

1.46 ГБ

В этой теме нет новых непрочитанных сообщений. Герои не плачут / Ying xiong wu lei [боевик, драма, военный, 1986] DVDRip, Avo

salma3

74 | 62

1.37 ГБ

В этой теме нет новых непрочитанных сообщений. Прах времен / Dung che sai duk [фэнтези, боевик, драма, приключения, 1994] BDRip 1080p, Dvo

salma3

9 | 5

7.93 ГБ

В этой теме нет новых непрочитанных сообщений. Легенда / Fong Sai Yuk [Боевик, боевые искусства, 1993] BDRip 1080p, Mvo

salma3

42 | 7

6.07 ГБ

В этой теме нет новых непрочитанных сообщений. Отверженные / Fong juk [боевик, триллер, криминал, 2006] BDRip 720p, Avo+Mvo+Sub

salma3

150 | 37

4.71 ГБ

В этой теме нет новых непрочитанных сообщений. Бешеный пёс / War Dog [боевик, триллер, драма, военный, 1987] DVDRip, Dvo

salma3

2 | 3

1.45 ГБ

В этой теме нет новых непрочитанных сообщений. Проигравший рыцарь / Ying han [боевик, комедия, 2008] HDRip, Mvo

salma3

0 | 0

1.46 ГБ


Начать новую тему Ответить на тему  [ 1 сообщение ] 




Для Мосгорсуда, Роскомнадзора и рекламодателей:: mosgorsud-torrent[собачка]yandex.ru