Торрент файл
скачать торрент магнет ссылка Добавлен: 25 авг 2016, 11:18
Размер: 7.8 ГБ
Сидеров: 21
Личеров: 19
Автор

СообщениеДобавлено: 25 авг 2016, 11:18 

Не в сети
Супермодератор
Аватара пользователя
Дата регистрации:
15 фев 2012, 16:44
Возраст: 29
Спасибо: 7331 / 2147
Сообщения: 73810
Год выхода: 2014
Жанр: Драма
Режиссер: Софи Бартез

В ролях: Эзра Миллер, Миа Васиковска, Пол Джаматти, Рис Иванс, Логан Маршалл-Грин, Лаура Кармайкл, Генри Ллойд-Хьюз, Ричард Кордери, Морфидд Кларк, Оливье Гурме

О фильме:
Главная героиня — Эмма, молодая жена провинциального врача, скучающая в браке. Лекарством от скуки становятся любовники и дорогие наряды.



Страна: Германия, Бельгия, США
Продолжительность: 01:58:32
Перевод: Любительский (двухголосый)
Субтитры: Отсутствуют
Файл
Кодек: h264
Качество: BDRip 1080
Видео: 1920x808 (2.40:1), h.264, 8bit, High@L4.1, ~8 597 Kbps, 23.976 fps, 0.231 bit/pixel
Аудио №1: Русский, 48 kHz, AC3, 2 ch, ~192.00 kbps
Аудио №2: Английский, 48 kHz, AC3, 6 ch, ~640.00 kbps
General
Unique ID : 232548632453966288193229430142090952673 (0xAEF33CCB49E8B9C0A1E2EC355C7D3FE1)
Complete name : D:Madame Bovary (BDRip, 1080p, 8bit, AC-3 RU)Мадам Бовари (Tisido & Aleister) (1).mkv
Format : Matroska
Format version : Version 4 / Version 2
File size : 7.80 GiB
Duration : 1h 58mn
Overall bit rate : 9 425 Kbps
Encoded date : UTC 2016-08-23 12:08:48
Writing application : mkvmerge v8.4.0 ('A better way to fly') 32bit
Writing library : libebml v1.3.1 + libmatroska v1.4.2
Video
ID : 1
Format : AVC
Format/Info : Advanced Video Codec
Format profile : High@L4.1
Format settings, CABAC : Yes
Format settings, ReFrames : 5 frames
Codec ID : V_MPEG4/ISO/AVC
Duration : 1h 58mn
Bit rate : 8 597 Kbps
Width : 1 920 pixels
Height : 808 pixels
Display aspect ratio : 2.40:1
Frame rate mode : Constant
Frame rate : 23.976 fps
Color space : YUV
Chroma subsampling : 4:2:0
Bit depth : 8 bits
Scan type : Progressive
Bits/(Pixel*Frame) : 0.231
Stream size : 7.11 GiB (91%)
Writing library : x264 core 146 r2538 121396c
Encoding settings : cabac=1 / ref=5 / deblock=1:0:0 / analyse=0x3:0x133 / me=umh / subme=7 / psy=1 / psy_rd=1.00:0.00 / mixed_ref=1 / me_range=16 / chroma_me=1 / trellis=1 / 8x8dct=1 / cqm=0 / deadzone=21,11 / fast_pskip=0 / chroma_qp_offset=-2 / threads=60 / lookahead_threads=6 / sliced_threads=0 / nr=0 / decimate=1 / interlaced=0 / bluray_compat=0 / constrained_intra=0 / bframes=3 / b_pyramid=2 / b_adapt=1 / b_bias=0 / direct=1 / weightb=1 / open_gop=0 / weightp=2 / keyint=250 / keyint_min=23 / scenecut=40 / intra_refresh=0 / rc_lookahead=40 / rc=2pass / mbtree=1 / bitrate=8597 / ratetol=1.0 / qcomp=0.60 / qpmin=0 / qpmax=69 / qpstep=4 / cplxblur=20.0 / qblur=0.5 / ip_ratio=1.40 / aq=1:1.00
Language : English
Default : Yes
Forced : No
Audio #1
ID : 2
Format : AC-3
Format/Info : Audio Coding 3
Mode extension : CM (complete main)
Format settings, Endianness : Big
Codec ID : A_AC3
Duration : 1h 58mn
Bit rate mode : Constant
Bit rate : 192 Kbps
Channel(s) : 2 channels
Channel positions : Front: L R
Sampling rate : 48.0 KHz
Frame rate : 31.250 fps (1536 spf)
Compression mode : Lossy
Stream size : 163 MiB (2%)
Title : [Tisido & Aleister]
Language : Russian
Default : Yes
Forced : No
Audio #2
ID : 3
Format : AC-3
Format/Info : Audio Coding 3
Mode extension : CM (complete main)
Format settings, Endianness : Big
Codec ID : A_AC3
Duration : 1h 58mn
Bit rate mode : Constant
Bit rate : 640 Kbps
Channel(s) : 6 channels
Channel positions : Front: L C R, Side: L R, LFE
Sampling rate : 48.0 KHz
Frame rate : 31.250 fps (1536 spf)
Compression mode : Lossy
Stream size : 543 MiB (7%)
Language : English
Default : No
Forced : No
Text
ID : 4
Format : ASS
Codec ID : S_TEXT/ASS
Codec ID/Info : Advanced Sub Station Alpha
Duration : 1h 51mn
Bit rate : 0 bps
Count of elements : 5
Compression mode : Lossless
Stream size : 522 Bytes (0%)
Title : [Надписи]
Language : Russian
Default : Yes
Forced : Yes
Menu
00:00:00.000 : en:00:00:00.000
00:10:03.353 : en:00:10:03.353
00:20:31.939 : en:00:20:31.939
00:29:56.336 : en:00:29:56.336
00:40:58.790 : en:00:40:58.790
00:52:01.994 : en:00:52:01.994
01:03:13.581 : en:01:03:13.581
01:12:21.462 : en:01:12:21.462
01:23:36.428 : en:01:23:36.428
01:32:31.337 : en:01:32:31.337
01:42:22.720 : en:01:42:22.720
01:52:02.132 : en:01:52:02.132









_________________
Проголосуй за трекер Открытый торрент трекер - RUS-MEDIA.ORG

Проголосуй Открытый торрент трекер - RUS-MEDIA.ORG


Вернуться к началу
 Профиль Отправить личное сообщение  
 
   Похожие торренты   Автор   Торрент   Размер 
В этой теме нет новых непрочитанных сообщений. Госпожа Бовари / Madame Bovary [Драма, комедия, 2014] ВDRip 720р, Mvo

salma3

51 | 20

5.26 ГБ

В этой теме нет новых непрочитанных сообщений. Мадам / Madame [Драма, комедия, 2017] BDRip 1080p, Dub [iTunes]

salma3

0 | 0

7.69 ГБ

В этой теме нет новых непрочитанных сообщений. Мадам / Madame [Драма, комедия, 2017] BDRip 720p, Dub [iTunes]

salma3

0 | 0

2.73 ГБ

В этой теме нет новых непрочитанных сообщений. Госпожа Америка / Mistress America [Комедия, 2015] BDRip 1080p, Mvo [iTunes]

Dracon

37 | 2

6.78 ГБ

В этой теме нет новых непрочитанных сообщений. Моя Госпожа / My Mistress [драма, мелодрама, 2014] HDRip, Mvo

salma3

9 | 4

1.46 ГБ

В этой теме нет новых непрочитанных сообщений. Госпожа горничная / Maid in Manhattan [драма, мелодрама, комедия, 2002] Blu-ray 1080p, Dub+Sub

salma3

27 | 13

26.56 ГБ

В этой теме нет новых непрочитанных сообщений. Госпожа горничная / Maid in Manhattan [Мелодрама, комедия, драма, 2002] BDRemux 1080p, Dub

salma3

2 | 1

21.92 ГБ


Начать новую тему Ответить на тему  [ 1 сообщение ] 




Для Мосгорсуда, Роскомнадзора и рекламодателей:: mosgorsud-torrent[собачка]yandex.ru
cron