Торрент файл
скачать торрент магнет ссылка Добавлен: 24 авг 2016, 11:23
Размер: 4.98 ГБ
Сидеров: 1
Личеров: 2
Автор

СообщениеДобавлено: 24 авг 2016, 11:23 

Не в сети
Супермодератор
Аватара пользователя
Дата регистрации:
15 фев 2012, 16:44
Возраст: 28
Спасибо: 7290 / 2147
Сообщения: 70823
Преступление на почве страсти / Crimes of Passion
Страна: США
Производство: China Blue Productions Inc., New World Pictures, Planet Productions
Год выпуска: 1984
Жанр: триллер, драма, мелодрама
Продолжительность: 01:52:35
Режиссер: Кен Рассел
Автор сценария: Бэрри Сэндлер

В ролях: Кэтлин Тёрнер, Брюс Дэвисон, Гордон Хант, Дэн Геррити, Энтони Перкинс, Терри Хойос, Энни Поттс, Винс МакКевин

Описание: Героиня фильма живёт загадочной двойной жизнью — днём она преуспевающая, очаровательная, но недоступная модельер — дизайнер Джоанна, а вечером — поднаторевшая в изощренных сексуальных играх проститутка по кличке «Голубая китаянка», воплощение необузданного эротизма и сексуальной раскованности. Однажды у «Голубой китаянки» появляется новый клиент — частный детектив Грейди. Они вызывают друг в друге такой любовный голод, какого ни один из них прежде не испытывал. С одной стороны, они стыдятся чувств, пробужденных ими друг в друге, с другой — их взаимно притягивает неукротимое желание и всё основательнее запутывает в сетях, сотканных из греховных соблазнов и опасных страстей...



Перевод: Профессиональный (многоголосый, закадровый)
Субтитры: русские (на места без перевода), английские (для слабослышащих)

Качество: BDRip 720p
Формат: MKV
Видео кодек: AVC
Аудио кодек: АС3
Видео: 1280x694 (1.85:1), 23.976 fps, MPEG-4 AVC ~5 915 kbps avg
Аудио №1: 48.0 kHz, AC3 Dolby Digital, 2/0 (L,R) ch, ~224 kbps | RUS
Аудио №2: 48.0 kHz, AC3 Dolby Digital, 1 ch, ~192 kbps | ENG
Формат субтитров: UTF-8 Plain Text
Дата премьеры (мир): 19 октября 1984
General
Уникальный идентификатор : 208107354672394862669540121230431334544 (0x9C9004C30A4DC4BB8C5EC6DB1495B090)
Полное имя : Преступление на почве страсти.1984.BDRip.720p.mkv
Формат : Matroska
Версия формата : Version 4 / Version 2
Размер файла : 4,98 Гбайт
Продолжительность : 1 ч. 52 м.
Общий поток : 6333 Кбит/сек
Дата кодирования : UTC 2016-08-14 04:48:52
Программа кодирования : mkvmerge v8.2.0 ('World of Adventure') 64bit
Библиотека кодирования : libebml v1.3.1 + libmatroska v1.4.2
Видео
Идентификатор : 1
Формат : AVC
Формат/Информация : Advanced Video Codec
Профиль формата : High@L4.1
Параметр CABAC формата : Да
Параметр ReFrames формата : 9 кадров
Идентификатор кодека : V_MPEG4/ISO/AVC
Продолжительность : 1 ч. 52 м.
Битрейт : 5915 Кбит/сек
Ширина : 1280 пикселей
Высота : 694 пикселя
Соотношение сторон : 1,85:1
Режим частоты кадров : Постоянный
Частота кадров : 23,976 (24000/1001) кадра/сек
Цветовое пространство : YUV
Субдискретизация насыщенности : 4:2:0
Битовая глубина : 8 бит
Тип развёртки : Прогрессивная
Бит/(Пиксели*Кадры) : 0.278
Размер потока : 4,65 Гбайт (93%)
Библиотека кодирования : x264 core 146 r2538 121396c
Настройки программы : cabac=1 / ref=9 / deblock=1:-3:-3 / analyse=0x3:0x113 / me=umh / subme=10 / psy=1 / psy_rd=1.00:0.15 / mixed_ref=1 / me_range=32 / chroma_me=1 / trellis=2 / 8x8dct=1 / cqm=0 / deadzone=21,11 / fast_pskip=1 / chroma_qp_offset=-3 / threads=6 / lookahead_threads=1 / sliced_threads=0 / nr=0 / decimate=1 / interlaced=0 / bluray_compat=0 / constrained_intra=0 / bframes=14 / b_pyramid=2 / b_adapt=2 / b_bias=0 / direct=1 / weightb=1 / open_gop=0 / weightp=2 / keyint=230 / keyint_min=23 / scenecut=40 / intra_refresh=0 / rc_lookahead=40 / rc=crf / mbtree=0 / crf=21.4 / qcomp=0.60 / qpmin=0 / qpmax=69 / qpstep=4 / vbv_maxrate=40000 / vbv_bufsize=50000 / crf_max=0.0 / nal_hrd=none / filler=0 / ip_ratio=1.40 / pb_ratio=1.30 / aq=1:1.00
Язык : English
Default : Да
Forced : Нет
Аудио #1
Идентификатор : 2
Формат : AC-3
Формат/Информация : Audio Coding 3
Расширение режима : CM (complete main)
Параметр Endianness формата : Big
Идентификатор кодека : A_AC3
Продолжительность : 1 ч. 52 м.
Вид битрейта : Постоянный
Битрейт : 224 Кбит/сек
Каналы : 2 канала
Расположение каналов : Front: L R
Частота : 48,0 КГц
Частота кадров : 31,250 кадров/сек (1536 spf)
Метод сжатия : С потерями
Размер потока : 180 Мбайт (4%)
Заголовок : MVO
Язык : Russian
Default : Да
Forced : Нет
Аудио #2
Идентификатор : 3
Формат : AC-3
Формат/Информация : Audio Coding 3
Расширение режима : CM (complete main)
Параметр Endianness формата : Big
Идентификатор кодека : A_AC3
Продолжительность : 1 ч. 52 м.
Вид битрейта : Постоянный
Битрейт : 192 Кбит/сек
Каналы : 1 канал
Расположение каналов : Front: C
Частота : 48,0 КГц
Частота кадров : 31,250 кадров/сек (1536 spf)
Метод сжатия : С потерями
Размер потока : 155 Мбайт (3%)
Заголовок : original
Язык : English
Default : Нет
Forced : Нет
Текст #1
Идентификатор : 4
Формат : UTF-8
Идентификатор кодека : S_TEXT/UTF8
Идентификатор кодека/Информация : UTF-8 Plain Text
Продолжительность : 38 м.
Битрейт : 16 бит/сек
Count of elements : 72
Размер потока : 4,64 Кбайт (0%)
Заголовок : русские (на места без перевода)
Язык : Russian
Default : Да
Forced : Да
Текст #2
Идентификатор : 5
Формат : UTF-8
Идентификатор кодека : S_TEXT/UTF8
Идентификатор кодека/Информация : UTF-8 Plain Text
Продолжительность : 1 ч. 50 м.
Битрейт : 74 бит/сек
Count of elements : 1347
Размер потока : 60,0 Кбайт (0%)
Заголовок : английские (для слабослышащих)
Язык : English
Default : Нет
Forced : Нет



_________________
Проголосуй за трекер Открытый торрент трекер - RUS-MEDIA.ORG

Проголосуй Открытый торрент трекер - RUS-MEDIA.ORG


Вернуться к началу
 Профиль Отправить личное сообщение  
 
   Похожие торренты   Автор   Торрент   Размер 
В этой теме нет новых непрочитанных сообщений. Преступление на почве страсти / Crimes of Passion [триллер, драма, мелодрама, 1984] BDRip 1080p, Mvo

salma3

1 | 2

8.86 ГБ

В этой теме нет новых непрочитанных сообщений. Преступление на почве страсти / Crimes of Passion [триллер, драма, мелодрама, 1984] BDRemux 1080p, Mvo

salma3

0 | 2

30.06 ГБ

В этой теме нет новых непрочитанных сообщений. Страсти Христовы / The Passion of the Christ [драма, 2004] BDRip 720p, Mvo

salma3

0 | 1

9.6 ГБ

В этой теме нет новых непрочитанных сообщений. Страсти Христовы / The Passion of the Christ [Драма, история, 2004] BDRip 720p, Mvo [60 fps]

salma3

5 | 1

10.98 ГБ

В этой теме нет новых непрочитанных сообщений. Игры страсти / Passion Play [фэнтези, драма, мелодрама, 2010] BDRip 1080p, Mvo+Sub

salma3

73 | 50

8.21 ГБ

В этой теме нет новых непрочитанных сообщений. Класс 1984 / Class of 1984 [боевик, триллер, драма, криминал, 1982] BDRip 720p, Avo

salma3

13 | 17

4.67 ГБ

В этой теме нет новых непрочитанных сообщений. Ночи полнолуния / Les nuits de la pleine lune [драма, мелодрама, 1984] BDRip 720p, Avo

salma3

35 | 20

7.34 ГБ


Начать новую тему Ответить на тему  [ 1 сообщение ] 




Для Мосгорсуда, Роскомнадзора и рекламодателей:: mosgorsud-torrent[собачка]yandex.ru
cron