Торрент файл
скачать торрент магнет ссылка Добавлен: 19 авг 2016, 12:07
Размер: 6.6 ГБ
Сидеров: 6
Личеров: 6
Автор

СообщениеДобавлено: 19 авг 2016, 12:07 

Не в сети
Супермодератор
Аватара пользователя
Дата регистрации:
15 фев 2012, 16:44
Возраст: 28
Спасибо: 7163 / 2147
Сообщения: 61793
Год выхода: 1979
Жанр: Боевик, боевые искусства, комедия
Режиссер: Джеки Чан

В ролях: Джеки Чан, Джеймс Тьен, Дин Шек, Хуи Лу Чен, Ши-Кван Йен, Куин Ли, Тин-чи Ченг, Чи-Пинг Чанг

О фильме:
На глазах юноши Ланга убийцы расправляются с любимым дедом, в прошлом знаменитым бойцом. Под руководством старого учителя Ланг обучается искусству борьбы, чтобы отомстить бандитам.

Страна: Гонконг
Продолжительность: 01:37:13
Перевод:
1. Профессиональный одноголосый закадровый (ТВ6)
2. Профессиональный двухголосый закадровый (СТС / ДТВ)
3. Авторский одноголосый закадровый (Визгунов)
Файл
Кодек: AVC, x264
Качество: BD-Rip 1080p
Видео: 1920x816 (2.35:1), 8888 kbps, 23,976 fps
Звук:
1. AC-3, 448 kbps, 48 KHz, 6 channels
2. AC-3, 192 kbps, 48 KHz, 2 channels
3. AC-3, 192 kbps, 48 KHz, 2 channels
General
Unique ID : 255026313725378596298361306244657064074 (0xBFDC480B359346CA8FE432A1A8D2288A)
Complete name : X:ГонконгБесстрашная гиена [Xiao quan guai zhao, 1979] 1080p.mkv
Format : Matroska
Format version : Version 2
File size : 6.60 GiB
Duration : 1h 37mn
Overall bit rate : 9 720 Kbps
Encoded date : UTC 2016-08-16 16:12:23
Writing application : mkvmerge v5.2.1 ('A Far Off Place') built on Jan 2 2012 23:21:10
Writing library : libebml v1.2.3 + libmatroska v1.3.0
Video
ID : 1
Format : AVC
Format/Info : Advanced Video Codec
Format profile : High@L4.1
Format settings, CABAC : Yes
Format settings, ReFrames : 4 frames
Muxing mode : Header stripping
Codec ID : V_MPEG4/ISO/AVC
Duration : 1h 37mn
Bit rate : 8 888 Kbps
Width : 1 920 pixels
Height : 816 pixels
Display aspect ratio : 2.35:1
Frame rate mode : Constant
Frame rate : 23.976 (24000/1001) fps
Color space : YUV
Chroma subsampling : 4:2:0
Bit depth : 8 bits
Scan type : Progressive
Bits/(Pixel*Frame) : 0.237
Stream size : 5.90 GiB (89%)
Title : Fearless Hyena (1979)
Writing library : x264 core 120 r2164 da19765
Encoding settings : cabac=1 / ref=3 / deblock=1:0:0 / analyse=0x3:0x113 / me=hex / subme=7 / psy=1 / psy_rd=1.00:0.00 / mixed_ref=1 / me_range=16 / chroma_me=1 / trellis=1 / 8x8dct=1 / cqm=0 / deadzone=21,11 / fast_pskip=1 / chroma_qp_offset=-2 / threads=3 / sliced_threads=0 / nr=0 / decimate=1 / interlaced=0 / bluray_compat=0 / constrained_intra=0 / bframes=3 / b_pyramid=2 / b_adapt=1 / b_bias=0 / direct=1 / weightb=1 / open_gop=0 / weightp=2 / keyint=240 / keyint_min=23 / scenecut=40 / intra_refresh=0 / rc_lookahead=40 / rc=2pass / mbtree=1 / bitrate=8888 / ratetol=1.0 / qcomp=0.60 / qpmin=0 / qpmax=69 / qpstep=4 / cplxblur=20.0 / qblur=0.5 / ip_ratio=1.40 / aq=1:1.00
Language : English
Default : Yes
Forced : No
Audio #1
ID : 2
Format : AC-3
Format/Info : Audio Coding 3
Mode extension : CM (complete main)
Format settings, Endianness : Big
Muxing mode : Header stripping
Codec ID : A_AC3
Duration : 1h 37mn
Bit rate mode : Constant
Bit rate : 448 Kbps
Channel(s) : 6 channels
Channel positions : Front: L C R, Side: L R, LFE
Sampling rate : 48.0 KHz
Frame rate : 31.250 fps (1536 spf)
Compression mode : Lossy
Delay relative to video : 700ms
Stream size : 312 MiB (5%)
Title : Одноголосый (ТВ6)
Language : Russian
Default : Yes
Forced : No
Audio #2
ID : 3
Format : AC-3
Format/Info : Audio Coding 3
Mode extension : CM (complete main)
Format settings, Endianness : Big
Muxing mode : Header stripping
Codec ID : A_AC3
Duration : 1h 37mn
Bit rate mode : Constant
Bit rate : 192 Kbps
Channel(s) : 2 channels
Channel positions : Front: L R
Sampling rate : 48.0 KHz
Frame rate : 31.250 fps (1536 spf)
Compression mode : Lossy
Delay relative to video : 700ms
Stream size : 134 MiB (2%)
Title : Двухголосый (СТС, ДТВ)
Language : Russian
Default : No
Forced : No
Audio #3
ID : 4
Format : AC-3
Format/Info : Audio Coding 3
Mode extension : CM (complete main)
Format settings, Endianness : Big
Muxing mode : Header stripping
Codec ID : A_AC3
Duration : 1h 37mn
Bit rate mode : Constant
Bit rate : 192 Kbps
Channel(s) : 2 channels
Channel positions : Front: L R
Sampling rate : 48.0 KHz
Frame rate : 31.250 fps (1536 spf)
Compression mode : Lossy
Stream size : 134 MiB (2%)
Title : Визгунов
Language : Russian
Default : No
Forced : No



_________________
Проголосуй за трекер Открытый торрент трекер - RUS-MEDIA.ORG

Проголосуй Открытый торрент трекер - RUS-MEDIA.ORG


Вернуться к началу
 Профиль Отправить личное сообщение  
 
   Похожие торренты   Автор   Торрент   Размер 
В этой теме нет новых непрочитанных сообщений. Бесстрашная гиена 2 / Long teng hu yue [Боевик, боевые искусства, комедия, 1983] BDRip 1080p, Mvo

salma3

13 | 7

5.85 ГБ

В этой теме нет новых непрочитанных сообщений. Астральное кунг-фу / Quan jing [Боевик, боевые искусства, комедия, 1987] BDRip 1080p. Mvo

salma3

6 | 6

6.41 ГБ

В этой теме нет новых непрочитанных сообщений. Дикая банда кунг-фу / Lao tou quan tou da man tou (Against Rascals with Kung Fu) [Боевые искусства, 1979] DVD5, Avo

salma3

6 | 2

4.16 ГБ

В этой теме нет новых непрочитанных сообщений. Великолепный мясник / Lin Shi Rong [Боевик, боевые искусства, комедия, 1979] BDRip 1080p, Avo

salma3

73 | 19

7.87 ГБ

В этой теме нет новых непрочитанных сообщений. Тайные соперники / Nan quan bei tui [Боевик, боевые искусства, 1976] DVDRip-AVC, Avo

salma3

54 | 17

1.89 ГБ

В этой теме нет новых непрочитанных сообщений. Драка в Бэттл-Крик / The Battle Creek Brawl [Боевик, комедия, боевые искусства, 1980] BDRip 1080p , Mvo

salma3

6 | 10

7.25 ГБ

В этой теме нет новых непрочитанных сообщений. Кровавая битва за сокровища / Blooded Treasury Fight [боевые искусства, 1979] DVDRip, Avo

salma3

1 | 1

1.46 ГБ


Начать новую тему Ответить на тему  [ 1 сообщение ] 




Для Мосгорсуда, Роскомнадзора и рекламодателей:: mosgorsud-torrent[собачка]yandex.ru
cron