Торрент файл
скачать торрент магнет ссылка Добавлен: 15 авг 2016, 11:42
Размер: 3.89 ГБ
Сидеров: 24
Личеров: 8
Автор

СообщениеДобавлено: 15 авг 2016, 11:42 

Не в сети
Супермодератор
Аватара пользователя
Дата регистрации:
15 фев 2012, 16:44
Возраст: 28
Спасибо: 7290 / 2147
Сообщения: 70480
Год выхода: 1992
Жанр: комедия, приключения, семейный
Режиссер: Том Эберхардт

В ролях: Курт Рассел, Мартин Шорт, Мэри Кэй Плэйс, Бенжамин Салисбери, Медоу Систо, Саншайн Логроньо, Хорхе Луис Рамос, Дж.А. Престон, Таня Солер, Рауль Эстела

О фильме:
Отец семейства Мартин Харви получает в наследство настоящую яхту… полусгнившее старое корыто, на которое не то что подняться — смотреть страшно. Но неунывающий Мартин решает отправиться на ней в дальнее плавание. Осталось только найти того, кто окажется вполне не в своем уме, чтобы принять командование над этим летучим голландцем.
И тогда на пристани появляется странный незнакомец, настоящий морской волк, только немного потрепанный штормами. Он назвался «Капитаном Роном», и со словами «что починится — починим в море, а суждено потонуть — потонем», созвал всех наверх. И вот корабль Харви, напоминающий Титаник после катастрофы, отправляется навстречу опасностям. На мостике — великолепный Рон. А с таким капитаном и айсберг не нужен.



Страна: США
Студия: David Permut Productions, Touchstone Pictures, Touchwood Pacific Partners 1
Продолжительность: 01:40:05
Перевод: Профессиональный (многоголосый, закадровый) Первый канал + Профессиональный (двухголосый, закадровый) Видеосервис + Авторский (одноголосый, закадровый) В.Горчаков + Авторский (одноголосый, закадровый) А.Михалёв + Авторский (одноголосый, закадровый) В.Сонькин + Профессиональный (многоголосый, закадровый) ICTV
Файл
Формат: Matroska
Видео: 1280x718 at 23.976 fps, MPEG-4 AVC, ~4000 kbps avg
Аудио#1: Russian: 48 kHz, AC3 Dolby Digital, 2/0 (L,R) ch, ~192.00 kbps avg |Многоголосый закадровый, Первый канал|
Аудио#2: Russian: 48 kHz, AC3 Dolby Digital, 2/0 (L,R) ch, ~192.00 kbps avg |Двухголосый закадровый, Видеосервис|
Аудио#3: Russian: 48 kHz, AC3 Dolby Digital, 2/0 (L,R) ch, ~192.00 kbps avg |Авторский, В.Горчаков|
Аудио#4: Russian: 48 kHz, AC3 Dolby Digital, 2/0 (L,R) ch, ~192.00 kbps avg |Авторский, А.Михалёв|
Аудио#5: Russian: 48 kHz, AC3 Dolby Digital, 2/0 (L,R) ch, ~192.00 kbps avg |Авторский, В.Сонькин|
Аудио#6: Ukrainain: 48 kHz, AC3 Dolby Digital, 2/0 (L,R) ch, ~192.00 kbps avg |Многоголосый закадровый, ICTV|
Аудио#7: English: 48 kHz, AC3 Dolby Digital, 3/2 (L,C,R,l,r) + LFE ch, ~384.00 kbps avg
Субтитры: English
***Сохранены и подписаны оригинальные главы.
***Релиз - Dreven.
Общее
Уникальный идентификатор : 227978884293494472236935588680419018650 (0xAB8322D08F8893D4B1304FEEA570879A)
Полное имя : Captain Ron. WEB-DL 720p.mkv
Формат : Matroska
Версия формата : Version 4 / Version 2
Размер файла : 3,89 Гбайт
Продолжительность : 1 ч. 40 м.
Общий поток : 5565 Кбит/сек
Дата кодирования : UTC 2016-08-02 18:47:15
Программа кодирования : mkvmerge v9.3.1 ('Mask Machine') 64bit
Библиотека кодирования : libebml v1.3.4 + libmatroska v1.4.5
Видео
Идентификатор : 1
Формат : AVC
Формат/Информация : Advanced Video Codec
Профиль формата : High@L3.1
Параметр CABAC формата : Нет
Параметр ReFrames формата : 2 кадра
Параметр GOP формата : N=1
Идентификатор кодека : V_MPEG4/ISO/AVC
Продолжительность : 1 ч. 40 м.
Битрейт : 3918 Кбит/сек
Ширина : 1280 пикселей
Высота : 718 пикселей
Соотношение сторон : 16:9
Режим частоты кадров : Постоянный
Частота кадров : 23,976 кадра/сек
Цветовое пространство : YUV
Субдискретизация насыщенности : 4:2:0
Битовая глубина : 8 бит
Тип развёртки : Прогрессивная
Бит/(Пиксели*Кадры) : 0.178
Размер потока : 2,74 Гбайт (70%)
Язык : English
Default : Да
Forced : Нет
Цветовой диапазон : Limited
Основные цвета : BT.709
Характеристики трансфера : BT.709
Коэффициенты матрицы : BT.709
Аудио #1
Идентификатор : 2
Формат : AC-3
Формат/Информация : Audio Coding 3
Расширение режима : CM (complete main)
Параметр Endianness формата : Big
Идентификатор кодека : A_AC3
Продолжительность : 1 ч. 40 м.
Вид битрейта : Постоянный
Битрейт : 192 Кбит/сек
Каналы : 2 канала
Расположение каналов : Front: L R
Частота : 48,0 КГц
Метод сжатия : С потерями
Размер потока : 137 Мбайт (3%)
Заголовок : 1 канал
Язык : Russian
Default : Да
Forced : Нет
Аудио #2
Идентификатор : 3
Формат : AC-3
Формат/Информация : Audio Coding 3
Расширение режима : CM (complete main)
Параметр Endianness формата : Big
Идентификатор кодека : A_AC3
Продолжительность : 1 ч. 40 м.
Вид битрейта : Постоянный
Битрейт : 192 Кбит/сек
Каналы : 2 канала
Расположение каналов : Front: L R
Частота : 48,0 КГц
Метод сжатия : С потерями
Размер потока : 137 Мбайт (3%)
Заголовок : Видеосервис
Язык : Russian
Default : Нет
Forced : Нет
Аудио #3
Идентификатор : 4
Формат : AC-3
Формат/Информация : Audio Coding 3
Расширение режима : CM (complete main)
Параметр Endianness формата : Big
Идентификатор кодека : A_AC3
Продолжительность : 1 ч. 40 м.
Вид битрейта : Постоянный
Битрейт : 192 Кбит/сек
Каналы : 2 канала
Расположение каналов : Front: L R
Частота : 48,0 КГц
Метод сжатия : С потерями
Размер потока : 137 Мбайт (3%)
Заголовок : Василий Горчаков
Язык : Russian
Default : Нет
Forced : Нет
Аудио #4
Идентификатор : 5
Формат : AC-3
Формат/Информация : Audio Coding 3
Расширение режима : CM (complete main)
Параметр Endianness формата : Big
Идентификатор кодека : A_AC3
Продолжительность : 1 ч. 40 м.
Вид битрейта : Постоянный
Битрейт : 192 Кбит/сек
Каналы : 2 канала
Расположение каналов : Front: L R
Частота : 48,0 КГц
Метод сжатия : С потерями
Размер потока : 137 Мбайт (3%)
Заголовок : Алексей Михалёв
Язык : Russian
Default : Нет
Forced : Нет
Аудио #5
Идентификатор : 6
Формат : AC-3
Формат/Информация : Audio Coding 3
Расширение режима : CM (complete main)
Параметр Endianness формата : Big
Идентификатор кодека : A_AC3
Продолжительность : 1 ч. 40 м.
Вид битрейта : Постоянный
Битрейт : 192 Кбит/сек
Каналы : 2 канала
Расположение каналов : Front: L R
Частота : 48,0 КГц
Метод сжатия : С потерями
Размер потока : 137 Мбайт (3%)
Заголовок : Владимир Сонькин
Язык : Russian
Default : Нет
Forced : Нет
Аудио #6
Идентификатор : 7
Формат : AC-3
Формат/Информация : Audio Coding 3
Расширение режима : CM (complete main)
Параметр Endianness формата : Big
Идентификатор кодека : A_AC3
Продолжительность : 1 ч. 40 м.
Вид битрейта : Постоянный
Битрейт : 192 Кбит/сек
Каналы : 2 канала
Расположение каналов : Front: L R
Частота : 48,0 КГц
Метод сжатия : С потерями
Размер потока : 137 Мбайт (3%)
Заголовок : ICTV
Язык : Ukrainian
Default : Нет
Forced : Нет
Аудио #7
Идентификатор : 8
Формат : AC-3
Формат/Информация : Audio Coding 3
Расширение режима : CM (complete main)
Параметр Endianness формата : Big
Идентификатор кодека : A_AC3
Продолжительность : 1 ч. 40 м.
Вид битрейта : Постоянный
Битрейт : 384 Кбит/сек
Каналы : 6 каналов
Расположение каналов : Front: L C R, Side: L R, LFE
Частота : 48,0 КГц
Метод сжатия : С потерями
Размер потока : 275 Мбайт (7%)
Язык : English
Default : Нет
Forced : Нет
Текст
Идентификатор : 9
Формат : UTF-8
Идентификатор кодека : S_TEXT/UTF8
Идентификатор кодека/Информация : UTF-8 Plain Text
Язык : English
Default : Нет
Forced : Нет
Меню
00:00:00.000 : en:Opening Titles/Someday
00:11:48.000 : en:A Classic
00:16:03.000 : en:Call Me Captain Ron
00:23:16.000 : en:The Adventure Begins
00:32:26.000 : en:Make The Game Interesting
00:38:47.000 : en:The Land Of Voodoo
00:47:15.000 : en:Pirates Of The Caribbean
00:56:53.000 : en:Worth Getting Lost
01:05:20.000 : en:Carnival
01:14:36.000 : en:Welcome To Cuba
01:25:34.000 : en:Nothing Can Stop Us Now
01:33:47.000 : en:Miami/End Credits


_________________
Проголосуй за трекер Открытый торрент трекер - RUS-MEDIA.ORG

Проголосуй Открытый торрент трекер - RUS-MEDIA.ORG


Вернуться к началу
 Профиль Отправить личное сообщение  
 
   Похожие торренты   Автор   Торрент   Размер 
В этой теме нет новых непрочитанных сообщений. Капитан Подштанник: Первый эпический фильм / Captain Underpants: The First Epic Movie [мультфильм, боевик, комедия, семейный, 2017] BDRip 720p, Mvo [Лицензия]

salma3

0 | 0

4.38 ГБ

В этой теме нет новых непрочитанных сообщений. Капитан Фантастик / Captain Fantastic [драма, мелодрама, комедия, 2016] WEB-DLRip 720p, Mvo

salma3

15 | 8

4.14 ГБ

В этой теме нет новых непрочитанных сообщений. Капитан Подштанник: Первый эпический фильм / Captain Underpants: The First Epic Movie [мультфильм, боевик, комедия, семейный, 2017] BDRip, Mvo [Лицензия]

salma3

0 | 0

1.46 ГБ

В этой теме нет новых непрочитанных сообщений. Капитан Лайтфут / Captain Lightfoot [драма, мелодрама, приключения, 1955] BDRip, Avo

salma3

0 | 1

1.45 ГБ

В этой теме нет новых непрочитанных сообщений. Капитан Фантастик / Captain Fantastic [драма, мелодрама, комедия, 2016] WEB-DLRip-AVC, Mvo

salma3

753 | 36

1.3 ГБ

В этой теме нет новых непрочитанных сообщений. Небесный капитан и мир будущего / Sky Captain and the World of Tomorrow [фантастика, боевик, триллер, 2004] BDRip 720p, Dub+Sub

salma3

40 | 12

3.99 ГБ

В этой теме нет новых непрочитанных сообщений. Капитан Фантастик / Captain Fantastic [драма, мелодрама, комедия, 2016] HDRip, Mvo [iTunes]

salma3

551 | 154

1.45 ГБ


Начать новую тему Ответить на тему  [ 1 сообщение ] 




Для Мосгорсуда, Роскомнадзора и рекламодателей:: mosgorsud-torrent[собачка]yandex.ru
cron