Торрент файл
скачать торрент магнет ссылка Добавлен: 13 авг 2016, 20:32
Размер: 5.56 ГБ
Сидеров: 10
Личеров: 7
Автор

СообщениеДобавлено: 13 авг 2016, 20:32 

Не в сети
Супермодератор
Аватара пользователя
Дата регистрации:
15 фев 2012, 16:44
Возраст: 28
Спасибо: 7290 / 2147
Сообщения: 70823
Год выхода: 2013
Жанр: семейный
Режиссер: Кристиан Ло

В ролях: Сондре Блэкстад Хенриксен, Андерс Босмо Кристиансен, Сесиль А. Мосли, Халлвард Холмен, Ингьерд Эгеберг

О фильме:
История об 11-летнем Модульфе, который думает, что он супергерой. Каждый день над ним издеваются самые крутые ребята в школе. И, по его убеждению, это хорошо. Потому что пока Модульф является главным объектом для издевательств, другим детям подобное не грозит. Но однажды в дом по соседству переезжает его ровесница Лисе. Она категорически не согласна со взглядами Модульфа и прилагает все усилия, чтобы превратить его в крутого парня, способного дать достойный отпор обидчикам. Но вскоре все начинает идти не по плану, и Модульф оказывается в драматической ситуации, которая ставит героя перед непростым выбором.

url=http://www.kinopoisk.ru/film/744049/][/url]

Производство: Норвегия / Filmbin
Продолжительность: 01:14:13
Озвучивание: любительское (одноголосое закадровое) viktor_2838 по переводу scouttravel
Файл
Качество: BDRip 1080p
Формат: MKV
Видео: MPEG-4 AVC, 1920x808 (2.40:1), 24.000 fps, 9030 kbps, 0.243 bit/pixel
Аудио #1: русский, AC3 2.0, 48 kHz, 192 kbps
Аудио #2: норвежский, DTS 5.1, 48 kHz, 1509 kbps
Субтитры: русские, украинские, английские вшитые отключаемые
Формат : Matroska
Версия формата : Version 4 / Version 2
Размер файла : 5,56 Гбайт
Продолжительность : 1 ч. 14 м.
Общий поток : 10,7 Мбит/сек
Дата кодирования : UTC 2016-06-11 12:59:56
Программа кодирования : mkvmerge v7.9.0 ('Birds') 64bit
Библиотека кодирования : libebml v1.3.1 + libmatroska v1.4.2
Видео
Идентификатор : 1
Формат : AVC
Формат/Информация : Advanced Video Codec
Профиль формата : High@L4.1
Параметр CABAC формата : Да
Параметр ReFrames формата : 5 кадров
Идентификатор кодека : V_MPEG4/ISO/AVC
Продолжительность : 1 ч. 14 м.
Битрейт : 9030 Кбит/сек
Ширина : 1920 пикселей
Высота : 808 пикселей
Соотношение сторон : 2,40:1
Режим частоты кадров : Постоянный
Частота кадров : 24,000 кадра/сек
Цветовое пространство : YUV
Субдискретизация насыщенности : 4:2:0
Битовая глубина : 8 бит
Тип развёртки : Прогрессивная
Бит/(Пиксели*Кадры) : 0.243
Размер потока : 4,57 Гбайт (82%)
Библиотека кодирования : x264 core 142 r2409 d6b4e63
Настройки программы : cabac=1 / ref=5 / deblock=1:-3:-3 / analyse=0x3:0x113 / me=umh / subme=8 / psy=1 / psy_rd=1.00:0.00 / mixed_ref=1 / me_range=16 / chroma_me=1 / trellis=1 / 8x8dct=1 / cqm=0 / deadzone=21,11 / fast_pskip=1 / chroma_qp_offset=-2 / threads=12 / lookahead_threads=2 / sliced_threads=0 / nr=0 / decimate=1 / interlaced=0 / bluray_compat=0 / constrained_intra=0 / bframes=3 / b_pyramid=2 / b_adapt=2 / b_bias=0 / direct=3 / weightb=1 / open_gop=0 / weightp=2 / keyint=240 / keyint_min=24 / scenecut=40 / intra_refresh=0 / rc_lookahead=50 / rc=2pass / mbtree=1 / bitrate=9030 / ratetol=1.0 / qcomp=0.60 / qpmin=0 / qpmax=69 / qpstep=4 / cplxblur=20.0 / qblur=0.5 / ip_ratio=1.40 / aq=1:1.00
Язык : Norwegian
Default : Да
Forced : Нет
Аудио #1
Идентификатор : 2
Формат : AC-3
Формат/Информация : Audio Coding 3
Расширение режима : CM (complete main)
Параметр Endianness формата : Big
Идентификатор кодека : A_AC3
Продолжительность : 1 ч. 14 м.
Вид битрейта : Постоянный
Битрейт : 192 Кбит/сек
Каналы : 2 канала
Расположение каналов : Front: L R
Частота : 48,0 КГц
Метод сжатия : С потерями
Размер потока : 102 Мбайт (2%)
Заголовок : viktor_2838
Язык : Russian
Default : Да
Forced : Нет
Аудио #2
Идентификатор : 3
Формат : DTS
Формат/Информация : Digital Theater Systems
Режим : 16
Параметр Endianness формата : Big
Идентификатор кодека : A_DTS
Продолжительность : 1 ч. 14 м.
Вид битрейта : Постоянный
Битрейт : 1509 Кбит/сек
Каналы : 6 каналов
Расположение каналов : Front: L C R, Side: L R, LFE
Частота : 48,0 КГц
Битовая глубина : 24 бит
Метод сжатия : С потерями
Размер потока : 801 Мбайт (14%)
Язык : Norwegian
Default : Нет
Forced : Нет
Текст #1
Идентификатор : 4
Формат : UTF-8
Идентификатор кодека : S_TEXT/UTF8
Идентификатор кодека/Информация : UTF-8 Plain Text
Заголовок : scouttravel
Язык : Russian
Default : Да
Forced : Нет
Текст #2
Идентификатор : 5
Формат : UTF-8
Идентификатор кодека : S_TEXT/UTF8
Идентификатор кодека/Информация : UTF-8 Plain Text
Язык : Ukrainian
Default : Нет
Forced : Нет
Текст #3
Идентификатор : 6
Формат : UTF-8
Идентификатор кодека : S_TEXT/UTF8
Идентификатор кодека/Информация : UTF-8 Plain Text
Язык : English
Default : Нет
Forced : Нет
Меню
00:00:00.000 : en:00:00:00.000
00:06:54.917 : en:00:06:54.917
00:12:44.917 : en:00:12:44.917
00:18:45.417 : en:00:18:45.417
00:26:46.792 : en:00:26:46.792
00:34:16.833 : en:00:34:16.833
00:39:26.333 : en:00:39:26.333
00:44:40.125 : en:00:44:40.125
00:51:35.292 : en:00:51:35.292
00:56:38.125 : en:00:56:38.125
01:00:38.708 : en:01:00:38.708
01:10:29.333 : en:01:10:29.333


_________________
Проголосуй за трекер Открытый торрент трекер - RUS-MEDIA.ORG

Проголосуй Открытый торрент трекер - RUS-MEDIA.ORG


Вернуться к началу
 Профиль Отправить личное сообщение  
 
   Похожие торренты   Автор   Торрент   Размер 
В этой теме нет новых непрочитанных сообщений. Крутые парни / Крутые ребята / Крутые мужики / Tough Guys [криминал, комедия, 1986] WEB-DL 720p, Dub+Mvo+Sub

salma3

4 | 1

3.36 ГБ

В этой теме нет новых непрочитанных сообщений. Крутые ребята не танцуют / Tough Guys Don't Dance [триллер, драма, детектив, 1987] HDTV 1080i, Dvo

salma3

18 | 6

5.03 ГБ

В этой теме нет новых непрочитанных сообщений. Крутые виражи / Cool Runnings [комедия, семейный, спорт, 1993] WEBRip 1080p, Dvo+Avo+Sub

salma3

12 | 18

9.37 ГБ

В этой теме нет новых непрочитанных сообщений. Крутые мужики / Tough Guys [комедия, 1986] BDRip 1080p, Mvo

salma3

10 | 4

16.6 ГБ

В этой теме нет новых непрочитанных сообщений. Крутые меры / Bastille Day [Боевик, драма, 2016] BDRip 1080p, Dub [Лицензия]

salma3

174 | 80

10.86 ГБ

В этой теме нет новых непрочитанных сообщений. Типа крутые легавые / Hot Fuzz [боевик, комедия, 2007] BDRip 1080p, Dub

salma3

0 | 0

12.77 ГБ

В этой теме нет новых непрочитанных сообщений. Крутые стволы / Mean Guns [боевик, триллер, криминал, 1997] BDRip 1080p, Mvo+Sub

salma3

43 | 8

12.33 ГБ


Начать новую тему Ответить на тему  [ 1 сообщение ] 




Для Мосгорсуда, Роскомнадзора и рекламодателей:: mosgorsud-torrent[собачка]yandex.ru
cron