Торрент файл
скачать торрент магнет ссылка Добавлен: 12 авг 2016, 21:37
Размер: 4.67 ГБ
Сидеров: 13
Личеров: 16
Автор

СообщениеДобавлено: 12 авг 2016, 21:37 

Не в сети
Супермодератор
Аватара пользователя
Дата регистрации:
15 фев 2012, 16:44
Возраст: 28
Спасибо: 6644 / 2146
Сообщения: 45843
Перевод: Авторский (одноголосый)
Субтитры: Английские (полные, отключаемые)
Формат: BDRip, MKV, H.264, AC3
Страна: Канада
Режиссер: Марк Л. Лестер
Жанр: боевик, триллер, драма, криминал
Продолжительность: 01:38:12
Год выпуска: 1982

В ролях: Перри Кинг, Мерри Линн, Росс Тимоти, Ван Паттен, Родди МакДауэлл, Стефан Арнгрим, Майкл Дж. Фокс, Кит Найт, Лиза Ланглуа, Нил Клиффорд, Эл Уоксмен

Описание: Банда оголтелых школьников преследует нового учителя, решившего навести в классе порядок. Озверевшие панки-школьники во главе с учеником-психопатом (Ван Паттен) избивают его, а жену насилуют. Месть учителя не уступает по жестокости выходкам банды, но заметно превосходит их по изощренности.

Рейтинг на IMDb: 6.6/10
Рейтинг на КиноПоиск.Ru: 6.936
Рейтинг MPAA: R

Видео: 1280x720p (16:9), 23.976 fps, MPEG4 AVC (х264), ~6360 kbps avg, 0.267 bit/pixel
Аудио#1: Русский 48 kHz, AC3, 6 ch, ~ 448.00 kbps [Авторский (одноголосый), Андрей Гаврилов]
Аудио#2: Английский 48 kHz, AC3, 6 ch, ~ 448.00 kbps [Внешним файлом: [Оригинал]


Автор РИПа:
Исходник: BD-Remux 1080p
Общее
Уникальный идентификатор : 237670812871842844224615837331393638571 (0xB2CDBBC9631AFA7DB8982822922470AB)
Полное имя : \\Fen_3\F\Downloads\Class_of_1984_[tfile.ru]\Class_of_1984_[tfile.ru].mkv
Формат : Matroska
Версия формата : Version 4 / Version 2
Размер файла : 4,36 Гбайт
Продолжительность : 1 ч. 38 м.
Общий поток : 6360 Кбит/сек
Дата кодирования : UTC 2015-05-06 20:14:56
Программа кодирования : mkvmerge v6.3.0 ('You can't stop me!') built on Jun 28 2013 20:09:41
Библиотека кодирования : libebml v1.3.0 + libmatroska v1.4.0

Видео
Идентификатор : 1
Формат : AVC
Формат/Информация : Advanced Video Codec
Профиль формата :
Параметр CABAC формата : Да
Параметр ReFrames формата : 9 кадров
Идентификатор кодека : V_MPEG4/ISO/AVC
Продолжительность : 1 ч. 38 м.
Битрейт : 5910 Кбит/сек
Ширина : 1280 пикселей
Высота : 720 пикселей
Соотношение сторон : 16:9
Режим частоты кадров : Постоянный
Частота кадров : 23,976 (24000/1001) кадра/сек
Стандарт вещания : Component
Цветовое пространство : YUV
Субдискретизация насыщенности : 4:2:0
Битовая глубина : 8 бит
Тип развёртки : Прогрессивная
Бит/(Пиксели*Кадры) : 0.267
Размер потока : 3,97 Гбайт (91%)
Заголовок : Class_Of_1984
Библиотека кодирования : x264 core 144 r2525
Настройки программы : cabac=1 / ref=9 / deblock=1:-3:-3 / analyse=0x3:0x133 / me=umh / subme=9 / psy=1 / psy_rd=1.00:0.00 / mixed_ref=0 / me_range=16 / chroma_me=1 / trellis=2 / 8x8dct=1 / cqm=0 / deadzone=21,11 / fast_pskip=1 / chroma_qp_offset=-2 / threads=6 / lookahead_threads=1 / sliced_threads=0 / nr=0 / decimate=1 / interlaced=0 / bluray_compat=0 / constrained_intra=0 / bframes=9 / b_pyramid=2 / b_adapt=2 / b_bias=0 / direct=3 / weightb=1 / open_gop=0 / weightp=2 / keyint=239 / keyint_min=23 / scenecut=40 / intra_refresh=0 / rc_lookahead=30 / rc=2pass / mbtree=1 / bitrate=5910 / ratetol=1.0 / qcomp=0.60 / qpmin=1 / qpmax=69 / qpstep=4 / cplxblur=20.0 / qblur=0.5 / vbv_maxrate=24000 / vbv_bufsize=24000 / nal_hrd=none / filler=0 / ip_ratio=1.40 / aq=3:1.00
Язык : English
Default : Да
Forced : Нет
Цветовой диапазон : Limited

Аудио
Идентификатор : 2
Формат : AC-3
Формат/Информация : Audio Coding 3
Расширение режима : CM (complete main)
Параметр Endianness формата : Big
Идентификатор кодека : A_AC3
Продолжительность : 1 ч. 38 м.
Вид битрейта : Постоянный
Битрейт : 448 Кбит/сек
Каналы : 6 каналов
Расположение каналов : Front: L C R, Side: L R, LFE
Частота : 48,0 КГц
Частота кадров : 31,250 кадров/сек (1536 spf)
Метод сжатия : С потерями
Размер потока : 315 Мбайт (7%)
Заголовок : AVO_Gavrilov
Язык : Russian
Default : Да
Forced : Нет

Текст
Идентификатор : 3
Формат : UTF-8
Идентификатор кодека : S_TEXT/UTF8
Идентификатор кодека/Информация : UTF-8 Plain Text
Заголовок : Full
Язык : English
Default : Да
Forced : Нет

Меню
00:00:00.000 : en:
00:10:40.264 : en:
00:17:39.141 : en:
00:26:31.840 : en:
00:35:56.696 : en:
00:45:00.864 : en:
00:53:28.121 : en:
01:00:39.510 : en:
01:07:26.208 : en:
01:16:55.027 : en:
01:22:54.427 : en:
01:30:46.399 : en:





_________________
Проголосуй за трекер Открытый торрент трекер - RUS-MEDIA.ORG

Проголосуй Открытый торрент трекер - RUS-MEDIA.ORG



реклама партнёра


Вернуться к началу
 Профиль Отправить личное сообщение  
 
   Похожие торренты   Автор   Торрент   Размер 
В этой теме нет новых непрочитанных сообщений. Класс 1984 / Class of 1984 [боевик, триллер, драма, криминал, 1982] BDRip 1080p, Avo

salma3

101 | 32

7.76 ГБ

В этой теме нет новых непрочитанных сообщений. Класс 1984 / Class of 1984 [боевик, триллер, драма, криминал, 1982] BDRemux 1080p, Avo+Sub

salma3

10 | 2

28.28 ГБ

В этой теме нет новых непрочитанных сообщений. Класс 1984 / Class of 1984 [боевик, триллер, драма, 1982] BDRip, Avo

salma3

27 | 4

1.45 ГБ

В этой теме нет новых непрочитанных сообщений. Класс 1984 / Class of 1984 [боевик, триллер, драма, 1982] BDRip-AVC, Avo

salma3

5 | 6

2.18 ГБ

В этой теме нет новых непрочитанных сообщений. Класс 1984 / Class of 1984 [боевик, триллер, драма, 1982] HDRip, Avo

salma3

30 | 8

745.19 МБ

В этой теме нет новых непрочитанных сообщений. Охота на роботов / Runaway [фантастика, боевик, триллер, криминал. 1984] BDRip 720p, Dvo+Avo+Sub

salma3

37 | 0

4.71 ГБ

В этой теме нет новых непрочитанных сообщений. Стукач / The Hit [триллер, драма, криминал, 1984] BDRip 720p, Mvo+Avo+Sub

salma3

151 | 37

5.05 ГБ


Начать новую тему Ответить на тему  [ 1 сообщение ] 




Для Мосгорсуда, Роскомнадзора и рекламодателей:: mosgorsud-torrent[собачка]yandex.ru