Торрент файл
скачать торрент магнет ссылка Добавлен: 11 авг 2016, 12:01
Размер: 3.8 ГБ
Сидеров: 0
Личеров: 0
Автор

СообщениеДобавлено: 11 авг 2016, 12:01 

Не в сети
Супермодератор
Аватара пользователя
Дата регистрации:
15 фев 2012, 16:44
Возраст: 28
Спасибо: 6644 / 2146
Сообщения: 45909
Год выхода: 1994
Жанр: ужасы, фэнтези, триллер
Режиссер: Тед Николау

В ролях: Андерс Хове, Денис Дафф, Кевин Спиртас, Мелани Шетнер, Памела Гордон, Ion Haiduc, Michael Della Femina, Michael Denish

О фильме:
Напрасно герои думали, что Раду можно убить простым протыканием сердца. Страшная мамулька оживляет его вновь при помощи крови Мишель, которой не удалось покинуть пристанище-склеп из-за наступившего рассвета. Раду вновь полон сил и с наступлением сумерек, прихватив маму и рыпающуюся Мишель, он направился в свой замок. Ребекка, сестра Мишель, вместе со своим другом из американского посольства Мелом и полицейским Марином, а позже и знакомый Мела, который разодет как распоследний десантник собираются на решающую битву с кровососом. Вооружившись, они попытаются предпринять очередную попытку освободить Мишель от назойливого Раду…



Страна: США
Продолжительность: 01:21:40
Перевод: Авторский (одноголосый, закадровый) Андрей Гаврилов

Файл
Кодек: H.264
Качество: BDRip 720р от SuperMin
Видео: 1280x720 (16:9), 3873 kbps, 23.976 fps
Звук:
Русский (AC-3, 2ch, 192 kbps) - А.Гаврилов
Оригинал (AC-3, 6ch, 640 kbps)
Оригинал (DTS, 6ch, 1509 kbps)
x264 [info]: frame I:832 Avg QP:16.02 size:109191
x264 [info]: frame P:23852 Avg QP:17.36 size: 41225
x264 [info]: frame B:92814 Avg QP:20.47 size: 13986
x264 [info]: consecutive B-frames: 1.9% 1.6% 5.2% 12.3% 21.8% 45.8% 7.4% 2.5% 1.5%
encoded 117498 frames, 7.36 fps, 3872.50 kb/s
General
Unique ID : 222878914064338976241901687178277605903 (0xA7ACEADE749D878489542CB480E6D20F)
Complete name : E:ФИЛЬМЫПодвиды-3 Жажда Крови.1994.x264.BDRip.720p.mkv
Format : Matroska
Format version : Version 4 / Version 2
File size : 3.80 GiB
Duration : 1h 21mn
Overall bit rate : 6 652 Kbps
Movie name : Подвиды-3 Жажда Крови (1994) - #LORDKILL#
Encoded date : UTC 2016-08-10 15:17:38
Writing application : mkvmerge v8.0.0 ('Til The Day That I Die') 64bit
Writing library : libebml v1.3.1 + libmatroska v1.4.2
Video
ID : 1
Format : AVC
Format/Info : Advanced Video Codec
Format profile : High@L4.1
Format settings, CABAC : Yes
Format settings, ReFrames : 9 frames
Codec ID : V_MPEG4/ISO/AVC
Duration : 1h 21mn
Bit rate : 3 873 Kbps
Width : 1 280 pixels
Height : 720 pixels
Display aspect ratio : 16:9
Frame rate mode : Constant
Frame rate : 23.976 (24000/1001) fps
Color space : YUV
Chroma subsampling : 4:2:0
Bit depth : 8 bits
Scan type : Progressive
Bits/(Pixel*Frame) : 0.175
Stream size : 2.21 GiB (58%)
Writing library : x264 core 146 r2538 121396c
Encoding settings : cabac=1 / ref=9 / deblock=1:-1:-1 / analyse=0x3:0x113 / me=umh / subme=10 / psy=1 / psy_rd=1.00:0.10 / mixed_ref=1 / me_range=32 / chroma_me=1 / trellis=2 / 8x8dct=1 / cqm=0 / deadzone=21,11 / fast_pskip=0 / chroma_qp_offset=-3 / threads=12 / lookahead_threads=2 / sliced_threads=0 / nr=0 / decimate=1 / interlaced=0 / bluray_compat=0 / constrained_intra=0 / bframes=8 / b_pyramid=2 / b_adapt=2 / b_bias=0 / direct=1 / weightb=1 / open_gop=0 / weightp=2 / keyint=240 / keyint_min=23 / scenecut=40 / intra_refresh=0 / rc_lookahead=40 / rc=crf / mbtree=0 / crf=19.0 / qcomp=0.60 / qpmin=0 / qpmax=69 / qpstep=4 / vbv_maxrate=50000 / vbv_bufsize=62500 / crf_max=0.0 / nal_hrd=none / filler=0 / ip_ratio=1.40 / pb_ratio=1.30 / aq=1:1.00
Default : Yes
Forced : No
Audio #1
ID : 2
Format : AC-3
Format/Info : Audio Coding 3
Mode extension : CM (complete main)
Format settings, Endianness : Big
Codec ID : A_AC3
Duration : 1h 21mn
Bit rate mode : Constant
Bit rate : 192 Kbps
Channel(s) : 2 channels
Channel positions : Front: L R
Sampling rate : 48.0 KHz
Frame rate : 31.250 fps (1536 spf)
Compression mode : Lossy
Stream size : 112 MiB (3%)
Title : Gavrilov AC3 2.0 192 kbps
Language : Russian
Default : No
Forced : No
Audio #2
ID : 3
Format : AC-3
Format/Info : Audio Coding 3
Mode extension : CM (complete main)
Format settings, Endianness : Big
Codec ID : A_AC3
Duration : 1h 21mn
Bit rate mode : Constant
Bit rate : 640 Kbps
Channel(s) : 6 channels
Channel positions : Front: L C R, Side: L R, LFE
Sampling rate : 48.0 KHz
Frame rate : 31.250 fps (1536 spf)
Compression mode : Lossy
Stream size : 374 MiB (10%)
Title : Original
Language : English
Default : Yes
Forced : No
Audio #3
ID : 4
Format : DTS
Format/Info : Digital Theater Systems
Format profile : MA / Core
Mode : 16
Format settings, Endianness : Big
Codec ID : A_DTS
Duration : 1h 21mn
Bit rate mode : Variable / Constant
Bit rate : 1 920 Kbps / 1 509 Kbps
Channel(s) : 6 channels
Channel positions : Front: L C R, Side: L R, LFE
Sampling rate : 48.0 KHz
Frame rate : 93.750 fps (512 spf)
Bit depth : 16 bits
Compression mode : Lossless / Lossy
Stream size : 1.11 GiB (29%)
Title : Original DTS-HD MA 5.1 1945 kbps
Language : English
Default : No
Forced : No
Menu
00:00:00.000 : en:00:00:00.000
00:04:21.887 : en:00:04:21.887
00:09:46.461 : en:00:09:46.461
00:15:41.691 : en:00:15:41.691
00:22:58.877 : en:00:22:58.877
00:28:29.708 : en:00:28:29.708
00:37:20.572 : en:00:37:20.572
00:44:35.715 : en:00:44:35.715
00:53:05.891 : en:00:53:05.891
00:59:04.833 : en:00:59:04.833
01:10:24.262 : en:01:10:24.262
01:18:31.790 : en:01:18:31.790


_________________
Проголосуй за трекер Открытый торрент трекер - RUS-MEDIA.ORG

Проголосуй Открытый торрент трекер - RUS-MEDIA.ORG



реклама партнёра


Вернуться к началу
 Профиль Отправить личное сообщение  
 
   Похожие торренты   Автор   Торрент   Размер 
В этой теме нет новых непрочитанных сообщений. Подвиды 3: Жажда крови / Bloodlust: Subspecies III [ужасы, фэнтези, триллер, 1994] BDRip, Avo

salma3

15 | 7

1.45 ГБ

В этой теме нет новых непрочитанных сообщений. Подвиды 3: Жажда крови / Bloodlust: Subspecies III [ужасы, фэнтези, триллер, 1994] BDRip 1080p, Avo

salma3

26 | 8

8.96 ГБ

В этой теме нет новых непрочитанных сообщений. Подвиды 3: Жажда крови / Bloodlust: Subspecies III [ужасы, фэнтези, триллер, 1994] HDRip-AVC, Avo

salma3

15 | 4

745.27 МБ

В этой теме нет новых непрочитанных сообщений. Подвиды 3: Жажда Крови / Bloodlust: Subspecies III [ужасы, фэнтези, триллер, 1994] BDRemux 1080p, Avo

salma3

7 | 3

15.34 ГБ

В этой теме нет новых непрочитанных сообщений. Подвиды 2: Кровавый камень / Bloodstone: Subspecies II [Ужасы, Фэнтези, 1993] BDRip-AVC, Avo

salma3

0 | 3

2.18 ГБ

В этой теме нет новых непрочитанных сообщений. Подвиды 2: Кровавый камень / Bloodstone: Subspecies II [ужасы, фэнтези, триллер, 1993] HDRip-AVC, Avo

salma3

16 | 9

745.38 МБ

В этой теме нет новых непрочитанных сообщений. Жаждущие крови зомби / Bloodlust Zombies [ужасы, 2011] DVDRip, Avo

salma3

16 | 4

1.38 ГБ


Начать новую тему Ответить на тему  [ 1 сообщение ] 




Для Мосгорсуда, Роскомнадзора и рекламодателей:: mosgorsud-torrent[собачка]yandex.ru