Торрент файл
скачать торрент магнет ссылка Добавлен: 03 авг 2016, 11:12
Размер: 3.17 ГБ
Сидеров: 13
Личеров: 5
Автор

СообщениеДобавлено: 03 авг 2016, 11:12 

В сети
Супермодератор
Аватара пользователя
Дата регистрации:
15 фев 2012, 16:44
Возраст: 28
Спасибо: 7285 / 2147
Сообщения: 70259
Год выхода: 1989
Жанр: драма, комедия, приключения, семейный
Режиссер: Тодд Холланд

В ролях: Люк Эдвардс, Винс Транкина, Уэнди Филлипс, Дея МакАллистер, Сэм МакМюррей, Бо Бриджес, Фред Сэвадж, Кристиан Слэйтер, Уилл Зельцер, Рой Конрад, Дженни Льюис, Грегор Хессе, Джеки Винсон

О фильме:
Кори Вудс и его младший брат-аутист Джимми, из-за разлада в семье сбегают из дома и отправляются в большое путешествие через пол страны в Калифорнию. По пути они встречают девчонку-сорванца Холи и узнают о невероятных игровых способностях Джимми! Тут же возникает идея - отправиться на турнир Video Armageddon, национальный чемпионат по видеоиграм. А тем временем за беглецами организована погоня...



Производство: США
Продолжительность: 01:39:51
Перевод: профессиональный (двухголосый закадровый)

Файл
Качество: HDTVRip 720p
Формат: MKV
Видео: MPEG-4 AVC, 1280x720 (16:9), 23.976 fps, 3882 kbps, 0.176 bit/pixel
Аудио #1: русский, AC3 2.0, 48 kHz, 192 kbps
Аудио #2: английский, AC3 5.1, 48 kHz, 384 kbps
Субтитры: английские вшитые отключаемые
Формат : Matroska
Версия формата : Version 4 / Version 2
Размер файла : 3,17 Гбайт
Продолжительность : 1 ч. 39 м.
Общий поток : 4548 Кбит/сек
Дата кодирования : UTC 2016-06-04 23:56:26
Программа кодирования : mkvmerge v7.9.0 ('Birds') 64bit
Библиотека кодирования : libebml v1.3.1 + libmatroska v1.4.2
Видео
Идентификатор : 1
Формат : AVC
Формат/Информация : Advanced Video Codec
Профиль формата : High@L4.1
Параметр CABAC формата : Да
Параметр ReFrames формата : 6 кадров
Идентификатор кодека : V_MPEG4/ISO/AVC
Продолжительность : 1 ч. 39 м.
Битрейт : 3882 Кбит/сек
Ширина : 1280 пикселей
Высота : 720 пикселей
Соотношение сторон : 16:9
Режим частоты кадров : Постоянный
Частота кадров : 23,976 кадра/сек
Цветовое пространство : YUV
Субдискретизация насыщенности : 4:2:0
Битовая глубина : 8 бит
Тип развёртки : Прогрессивная
Бит/(Пиксели*Кадры) : 0.176
Размер потока : 2,71 Гбайт (85%)
Библиотека кодирования : x264 core 133 r2334 a3ac64b
Настройки программы : cabac=1 / ref=6 / deblock=0:-1:-1 / analyse=0x3:0x113 / me=umh / subme=9 / psy=1 / psy_rd=1.00:0.15 / mixed_ref=1 / me_range=24 / chroma_me=1 / trellis=1 / 8x8dct=1 / cqm=0 / deadzone=21,11 / fast_pskip=1 / chroma_qp_offset=-3 / threads=12 / lookahead_threads=1 / sliced_threads=0 / nr=0 / decimate=1 / interlaced=0 / bluray_compat=0 / constrained_intra=0 / bframes=5 / b_pyramid=2 / b_adapt=2 / b_bias=0 / direct=3 / weightb=1 / open_gop=0 / weightp=2 / keyint=250 / keyint_min=23 / scenecut=40 / intra_refresh=0 / rc_lookahead=50 / rc=crf / mbtree=1 / crf=20.0 / qcomp=0.60 / qpmin=0 / qpmax=69 / qpstep=4 / vbv_maxrate=50000 / vbv_bufsize=50000 / crf_max=0.0 / nal_hrd=none / ip_ratio=1.40 / aq=1:1.00
Язык : English
Default : Да
Forced : Нет
Аудио #1
Идентификатор : 2
Формат : AC-3
Формат/Информация : Audio Coding 3
Расширение режима : CM (complete main)
Параметр Endianness формата : Big
Идентификатор кодека : A_AC3
Продолжительность : 1 ч. 39 м.
Вид битрейта : Постоянный
Битрейт : 192 Кбит/сек
Каналы : 2 канала
Расположение каналов : Front: L R
Частота : 48,0 КГц
Метод сжатия : С потерями
Размер потока : 137 Мбайт (4%)
Язык : Russian
Default : Да
Forced : Нет
Аудио #2
Идентификатор : 3
Формат : AC-3
Формат/Информация : Audio Coding 3
Расширение режима : CM (complete main)
Параметр Endianness формата : Big
Идентификатор кодека : A_AC3
Продолжительность : 1 ч. 39 м.
Вид битрейта : Постоянный
Битрейт : 384 Кбит/сек
Каналы : 6 каналов
Расположение каналов : Front: L C R, Side: L R, LFE
Частота : 48,0 КГц
Метод сжатия : С потерями
Размер потока : 274 Мбайт (8%)
Язык : English
Default : Нет
Forced : Нет
Текст
Идентификатор : 4
Формат : UTF-8
Идентификатор кодека : S_TEXT/UTF8
Идентификатор кодека/Информация : UTF-8 Plain Text
Язык : English
Default : Да
Forced : Нет


_________________
Проголосуй за трекер Открытый торрент трекер - RUS-MEDIA.ORG

Проголосуй Открытый торрент трекер - RUS-MEDIA.ORG


Вернуться к началу
 Профиль Отправить личное сообщение  
 
   Похожие торренты   Автор   Торрент   Размер 
В этой теме нет новых непрочитанных сообщений. Волшебник / The Wizard [Драма, комедия, приключения, семейный, 1989] WEB-DL 720p, Dvo+Sub

salma3

20 | 3

2.98 ГБ

В этой теме нет новых непрочитанных сообщений. Дорогая, я уменьшил детей / Honey, I Shrunk the Kids [Комедия, приключения, семейный, 1989] BDRip 720p, Mvo

salma3

52 | 5

5.75 ГБ

В этой теме нет новых непрочитанных сообщений. Дядюшка Бак / Uncle Buck [Драма, комедия, семейный, 1989] BDRip 720p, Dub

salma3

39 | 12

9.35 ГБ

В этой теме нет новых непрочитанных сообщений. Дорогая, я уменьшил детей / Honey, I Shrunk the Kids [Комедия, приключения, семейный, 1989] HDRip, Mvo [ОРТ]

salma3

18 | 6

745.49 МБ

В этой теме нет новых непрочитанных сообщений. Дорогая, я уменьшил детей / Honey, I Shrunk the Kids [Комедия, приключения, семейный, 1989] HDRip, Mvo [ОРТ]

salma3

20 | 2

1.46 ГБ

В этой теме нет новых непрочитанных сообщений. Пробуждение / Wide Awake [драма, комедия, семейный, 1998] HDTVRip 720p, Mvo

salma3

31 | 3

3.08 ГБ

В этой теме нет новых непрочитанных сообщений. Уик-энд у Берни / Weekend at Bernie's [комедия, криминал, приключения, 1989] BDRip 720p, Mvo+Avo+Sub

salma3

0 | 0

4.92 ГБ


Начать новую тему Ответить на тему  [ 1 сообщение ] 




Для Мосгорсуда, Роскомнадзора и рекламодателей:: mosgorsud-torrent[собачка]yandex.ru
cron