Торрент файл
скачать торрент магнет ссылка Добавлен: 31 июл 2016, 13:19
Размер: 4.06 ГБ
Сидеров: 0
Личеров: 0
Автор

СообщениеДобавлено: 31 июл 2016, 13:19 

Не в сети
Супермодератор
Аватара пользователя
Дата регистрации:
15 фев 2012, 16:44
Возраст: 29
Спасибо: 7328 / 2147
Сообщения: 73737
Год выхода: 1997
Жанр: Боевик, триллер, драма, криминал
Режиссер: Джим Кауф

В ролях: Тупак Шакур, Джеймс Белуши, Лила Рошон, Дэннис Куэйд, Джеймс Эрл Джонс, Дэвид Пэймер, Венди Крюсон,

О фильме:
Детективы Да Винчи и Родригес, крутые уличные сыщики, под прикрытием полицейских жетонов организовали в городе мощную подпольную сеть наркоторговли. Они действуют просто: находят покупателя, проворачивают с ним сделку, а затем убивают, оставляя себе деньги и товар.После этого аферисты ищут новую жертву, списав смерть клиента на бандитские разборки. Дела идут хорошо, пока не выясняется, что один из убитых — агент комитета по борьбе с наркотиками, работавший под прикрытием. Убийц необходимо найти, и детективы рьяно берутся за дело, решив свалить ответственность за свое злодейство на единственного человека в городе, чей секрет еще страшнее, чем их собственный.И теперь, когда разоблачительные тиски правды начинают сжиматься, Да Винчи и Родригес должны пойти на самый рискованный и хитроумный обман в своей жизни.

Страна: США
Студия: Orion Pictures, Kouf/Bigelow Productions
Продолжительность: 01:51:16
Перевод: Профессиональный многоголосый, авторский
Файл
Кодек: x264
Качество: BDRip 720p
Видео: MPEG-4 AVC, 3500 Кбит/с, 1280х544, 23.976 кадр/с
Аудио #1: AC3, 5 ch, 448 Кбит/с | Профессиональный многоголосый
Аудио #2: AC3, 2 ch, 192 Кбит/с | Авторский Юрий Сербин
Аудио #3: AC3, 6 ch, 448 Кбит/с | Авторский Михаил Яроцкий (ненормативная лексика)
Аудио #4: AC3, 6 ch, 640 Кбит/с | Английский
Субтитры: Английские (Full + SDH)
Общее
Уникальный идентификатор : 204705121239490963136046024952006297470 (0x9A00C5B3E8E7EE419D2C24ED9623C77E)
Полное имя : Gang.Related.1997.BDRip.720p.mkv
Формат : Matroska
Версия формата : Version 4 / Version 2
Размер файла : 4,06 Гбайт
Продолжительность : 1 ч. 51 м.
Общий поток : 5227 Кбит/сек
Название фильма : Gang Related
Режиссёр : Jim Kouf
Дата кодирования : UTC 2016-07-29 16:59:51
Программа кодирования : mkvmerge v9.2.0 ('Photograph') 32bit
Библиотека кодирования : libebml v1.3.3 + libmatroska v1.4.4
Attachements : cover.jpg
Release : Koenig
DURATION : 01:50:35.504000000
NUMBER_OF_FRAMES : 2421
NUMBER_OF_BYTES : 71666
_STATISTICS_WRITING_APP : mkvmerge v9.2.0 ('Photograph') 32bit
_STATISTICS_WRITING_DATE_UTC : 2016-07-29 16:59:51
_STATISTICS_TAGS : BPS DURATION NUMBER_OF_FRAMES NUMBER_OF_BYTES
Видео
Идентификатор : 1
Формат : AVC
Формат/Информация : Advanced Video Codec
Профиль формата : High@L4.1
Параметр CABAC формата : Да
Параметр ReFrames формата : 9 кадров
Идентификатор кодека : V_MPEG4/ISO/AVC
Продолжительность : 1 ч. 51 м.
Битрейт : 3499 Кбит/сек
Ширина : 1280 пикселей
Высота : 544 пикселя
Соотношение сторон : 2,35:1
Режим частоты кадров : Постоянный
Частота кадров : 23,976 кадра/сек
Цветовое пространство : YUV
Субдискретизация насыщенности : 4:2:0
Битовая глубина : 8 бит
Тип развёртки : Прогрессивная
Бит/(Пиксели*Кадры) : 0.210
Размер потока : 2,64 Гбайт (65%)
Библиотека кодирования : x264 core 148 r2692 64f4e24
Настройки программы : cabac=1 / ref=9 / deblock=1:-3:-3 / analyse=0x3:0x133 / me=umh / subme=10 / psy=1 / psy_rd=1.00:0.00 / mixed_ref=1 / me_range=32 / chroma_me=1 / trellis=2 / 8x8dct=1 / cqm=0 / deadzone=21,11 / fast_pskip=0 / chroma_qp_offset=-2 / threads=3 / lookahead_threads=1 / sliced_threads=0 / nr=0 / decimate=1 / interlaced=0 / bluray_compat=0 / constrained_intra=0 / bframes=11 / b_pyramid=2 / b_adapt=2 / b_bias=0 / direct=3 / weightb=1 / open_gop=0 / weightp=2 / keyint=240 / keyint_min=23 / scenecut=40 / intra_refresh=0 / rc_lookahead=40 / rc=2pass / mbtree=1 / bitrate=3499 / ratetol=1.0 / qcomp=0.60 / qpmin=10 / qpmax=51 / qpstep=4 / cplxblur=20.0 / qblur=0.5 / vbv_maxrate=50000 / vbv_bufsize=62500 / nal_hrd=none / filler=0 / ip_ratio=1.40 / aq=1:1.00
Default : Да
Forced : Нет
Аудио #1
Идентификатор : 2
Формат : AC-3
Формат/Информация : Audio Coding 3
Расширение режима : CM (complete main)
Параметр Endianness формата : Big
Идентификатор кодека : A_AC3
Продолжительность : 1 ч. 51 м.
Вид битрейта : Постоянный
Битрейт : 448 Кбит/сек
Каналы : 5 каналов
Расположение каналов : Front: L C R, Side: L R
Частота : 48,0 КГц
Метод сжатия : С потерями
Размер потока : 357 Мбайт (9%)
Заголовок : MVO
Язык : Russian
Default : Да
Forced : Нет
Аудио #2
Идентификатор : 3
Формат : AC-3
Формат/Информация : Audio Coding 3
Расширение режима : CM (complete main)
Параметр Endianness формата : Big
Идентификатор кодека : A_AC3
Продолжительность : 1 ч. 51 м.
Вид битрейта : Постоянный
Битрейт : 192 Кбит/сек
Каналы : 3 канала
Расположение каналов : Front: L R, LFE
Частота : 48,0 КГц
Метод сжатия : С потерями
Размер потока : 153 Мбайт (4%)
Заголовок : AVO - Юрий Сербин
Язык : Russian
Default : Нет
Forced : Нет
Аудио #3
Идентификатор : 4
Формат : AC-3
Формат/Информация : Audio Coding 3
Расширение режима : CM (complete main)
Параметр Endianness формата : Big
Идентификатор кодека : A_AC3
Продолжительность : 1 ч. 51 м.
Вид битрейта : Постоянный
Битрейт : 448 Кбит/сек
Каналы : 6 каналов
Расположение каналов : Front: L C R, Side: L R, LFE
Частота : 48,0 КГц
Метод сжатия : С потерями
Размер потока : 357 Мбайт (9%)
Заголовок : AVO - Михаил Яроцкий
Язык : Russian
Default : Нет
Forced : Нет
Аудио #4
Идентификатор : 5
Формат : AC-3
Формат/Информация : Audio Coding 3
Расширение режима : CM (complete main)
Параметр Endianness формата : Big
Идентификатор кодека : A_AC3
Продолжительность : 1 ч. 51 м.
Вид битрейта : Постоянный
Битрейт : 640 Кбит/сек
Каналы : 6 каналов
Расположение каналов : Front: L C R, Side: L R, LFE
Частота : 48,0 КГц
Метод сжатия : С потерями
Размер потока : 509 Мбайт (12%)
Язык : English
Default : Нет
Forced : Нет
Текст #1
Идентификатор : 6
Формат : UTF-8
Идентификатор кодека : S_TEXT/UTF8
Идентификатор кодека/Информация : UTF-8 Plain Text
Заголовок : Full
Язык : English
Default : Нет
Forced : Нет
Текст #2
Идентификатор : 7
Формат : UTF-8
Идентификатор кодека : S_TEXT/UTF8
Идентификатор кодека/Информация : UTF-8 Plain Text
Заголовок : SDH
Язык : English
Default : Нет
Forced : Нет
Меню
00:00:00.000 : en:
00:00:10.927 : en:
00:13:30.643 : en:
00:27:29.564 : en:
00:42:47.356 : en:
00:58:07.025 : en:
01:14:48.400 : en:
01:25:26.371 : en:
01:37:58.497 : en:
01:51:27.263 : en:


_________________
Проголосуй за трекер Открытый торрент трекер - RUS-MEDIA.ORG

Проголосуй Открытый торрент трекер - RUS-MEDIA.ORG


Вернуться к началу
 Профиль Отправить личное сообщение  
 
   Похожие торренты   Автор   Торрент   Размер 
В этой теме нет новых непрочитанных сообщений. Преступные связи / Gang Related [Драма, криминал, 1997] DVDRip, Mvo

salma3

103 | 34

1.37 ГБ

В этой теме нет новых непрочитанных сообщений. Связи нет / Disconnect [триллер, драма, 2012] BDRip 720p, Dvo

salma3

97 | 11

5.76 ГБ

В этой теме нет новых непрочитанных сообщений. Доберман / Dobermann [Боевик, триллер, криминал, 1997] BDRip 720p, Mvo

salma3

0 | 0

4.72 ГБ

В этой теме нет новых непрочитанных сообщений. Изображая Бога / Playing God [триллер, драма, криминал, 1997] BDRip 720p, Mvo

salma3

82 | 53

6.62 ГБ

В этой теме нет новых непрочитанных сообщений. Целуя девушек / Kiss the Girls [триллер, драма, криминал, 1997] BDRip 720p, Mvo+Dvo+Avo+Sub

salma3

27 | 17

6.64 ГБ

В этой теме нет новых непрочитанных сообщений. Гори все огнем / This World, Then the Fireworks [триллер, драма, криминал, 1997] BDRip 720p, Avo

salma3

0 | 0

3.94 ГБ

В этой теме нет новых непрочитанных сообщений. Пердита Дуранго / Perdita Durango [боевик, криминал, 1997] BDRip 720p, Dvo

salma3

39 | 34

7.05 ГБ


Начать новую тему Ответить на тему  [ 1 сообщение ] 




Для Мосгорсуда, Роскомнадзора и рекламодателей:: mosgorsud-torrent[собачка]yandex.ru
cron