Торрент файл
скачать торрент магнет ссылка Добавлен: 28 июл 2016, 12:35
Размер: 9.57 ГБ
Сидеров: 4
Личеров: 4
Автор

СообщениеДобавлено: 28 июл 2016, 12:35 

Не в сети
Супермодератор
Аватара пользователя
Дата регистрации:
15 фев 2012, 16:44
Возраст: 28
Спасибо: 6665 / 2146
Сообщения: 46082
Год выхода: 1997
Жанр: Фэнтези, приключения, комедия, семейный
Режиссёр: Майкл Ритчи

В ролях: Мартин Шот, Роберт Пасторелли, Мара Уилсон, Френсис Капра, Кэтлин Тёрнер, Аманда Пламмер, Эйден Куинн, Терри Гарр, Руби Ди, Джонатан Хэдари, Лэнни Флаэрти, Алан Кэмпбелл, Дебора Оделл

О фильме:
Когда Энабел загадала желание о том, чтобы у нее появилась добрая фея, она и представить себе не могла, что его имя будет Мюррэй. Очень скоро Энабел понимает, что у Мюррэя нет никакого опыта с детьми, зато отговорок хоть отбавляй. Энабел и недотепа Мюррэй втягиваются в уморительно смешной круговорот волшебных событий и приключений, а спасти папу девочки необходимо до полуночи. Им приходится сразиться со злой ведьмой и вернуть волшебную палочку, чтобы мир снова стал таким, где желания могут сбываться.



Выпущено: США, Universal Pictures, The Bubble Factory, Sheinberg Productions
Продолжительность: 01:29:26
Перевод: Профессиональный многоголосый (ТНТ), авторский одноголосый (А. Алексеев)
Оригинальная аудио-дорожка: Английская
Файл
Формат: MKV
Кодек: MPEG-4 AVC
Качество: BDRip 1080p [Исходник: Видеоряд от CHDBits]
Видео: MPEG-4 AVC, 1920x1038 (1.85:1), 13.2 Мбит/с, 23.976 кадр/с, 0.276 bit/pixel
Аудио #1: Русский, Dolby AC3, 48000 Гц, 192 Кбит/с, 2 канала (Стерео) - MVO [ТНТ]
Аудио #2: Русский, Dolby AC3, 48000, 448 Кбит/с, 6 каналов (5.1) - AVO [А. Алексеев]
Аудио #6: Английский, DTS, 48000 Гц, 1510 Кбит/с, 6 каналов - Оригинал
Субтитры: Русские, английские (полные, SDH) SRT
Навигация по главам: Есть (Сохранены оригинальные чаптеры, как на Blu-ray)
За рип огромная благодарность - CHDBits!
За предоставленные аудио-дорожки с русским переводом - огромная благодарность Diablo!
General
Unique ID : 233863191511504887268104965300670957706 (0xAFF0698F421CA27DBBB3E17FED4C088A)
Complete name : A.Simple.Wish.1997.BDRip.1080p.mkv
Format : Matroska
Format version : Version 4 / Version 2
File size : 9.57 GiB
Duration : 1h 29mn
Overall bit rate : 15.3 Mbps
Movie name : Простое желание / A Simple Wish (1997) BDRip (1080p) от ivandubskoj
Encoded date : UTC 2016-07-23 20:58:45
Writing application : mkvmerge v7.9.0 ('Birds') 64bit
Writing library : libebml v1.3.1 + libmatroska v1.4.2
Video
ID : 1
Format : AVC
Format/Info : Advanced Video Codec
Format profile : High@L4.1
Format settings, CABAC : Yes
Format settings, ReFrames : 4 frames
Codec ID : V_MPEG4/ISO/AVC
Duration : 1h 29mn
Bit rate : 13.2 Mbps
Width : 1 920 pixels
Height : 1 038 pixels
Display aspect ratio : 1.85:1
Frame rate mode : Constant
Frame rate : 23.976 fps
Color space : YUV
Chroma subsampling : 4:2:0
Bit depth : 8 bits
Scan type : Progressive
Bits/(Pixel*Frame) : 0.276
Stream size : 8.04 GiB (84%)
Title : A Simple Wish (1997)
Writing library : x264 core 115 r2008 4c552d8
Encoding settings : cabac=1 / ref=4 / deblock=1:-3:-3 / analyse=0x3:0x113 / me=umh / subme=10 / psy=1 / psy_rd=1.10:0.15 / mixed_ref=1 / me_range=32 / chroma_me=1 / trellis=2 / 8x8dct=1 / cqm=2 / deadzone=21,11 / fast_pskip=0 / chroma_qp_offset=-2 / threads=6 / sliced_threads=0 / nr=0 / decimate=1 / interlaced=0 / bluray_compat=0 / constrained_intra=0 / bframes=6 / b_pyramid=2 / b_adapt=2 / b_bias=0 / direct=3 / weightb=1 / open_gop=0 / weightp=2 / keyint=250 / keyint_min=23 / scenecut=40 / intra_refresh=0 / rc_lookahead=60 / rc=2pass / mbtree=1 / bitrate=13171 / ratetol=1.0 / qcomp=0.60 / qpmin=1 / qpmax=63 / qpstep=4 / cplxblur=20.0 / qblur=0.5 / vbv_maxrate=40000 / vbv_bufsize=30000 / nal_hrd=none / ip_ratio=1.40 / aq=1:0.80
Language : English
Default : Yes
Forced : No
Audio #1
ID : 2
Format : AC-3
Format/Info : Audio Coding 3
Mode extension : CM (complete main)
Format settings, Endianness : Big
Codec ID : A_AC3
Duration : 1h 29mn
Bit rate mode : Constant
Bit rate : 192 Kbps
Channel(s) : 2 channels
Channel positions : Front: L R
Sampling rate : 48.0 KHz
Bit depth : 16 bits
Compression mode : Lossy
Stream size : 123 MiB (1%)
Title : MVO [THT]
Language : Russian
Default : Yes
Forced : No
Audio #2
ID : 3
Format : AC-3
Format/Info : Audio Coding 3
Mode extension : CM (complete main)
Format settings, Endianness : Big
Codec ID : A_AC3
Duration : 1h 29mn
Bit rate mode : Constant
Bit rate : 448 Kbps
Channel(s) : 6 channels
Channel positions : Front: L C R, Side: L R, LFE
Sampling rate : 48.0 KHz
Bit depth : 16 bits
Compression mode : Lossy
Stream size : 287 MiB (3%)
Title : AVO [А. Алексеев]
Language : Russian
Default : No
Forced : No
Audio #3
ID : 4
Format : DTS
Format/Info : Digital Theater Systems
Mode : 16
Format settings, Endianness : Big
Codec ID : A_DTS
Duration : 1h 29mn
Bit rate mode : Constant
Bit rate : 1 509 Kbps
Channel(s) : 6 channels
Channel positions : Front: L C R, Side: L R, LFE
Sampling rate : 48.0 KHz
Bit depth : 24 bits
Compression mode : Lossy
Stream size : 965 MiB (10%)
Title : Original
Language : English
Default : No
Forced : No
Text #1
ID : 5
Format : UTF-8
Codec ID : S_TEXT/UTF8
Codec ID/Info : UTF-8 Plain Text
Title : Full
Language : Russian
Default : No
Forced : No
Text #2
ID : 6
Format : UTF-8
Codec ID : S_TEXT/UTF8
Codec ID/Info : UTF-8 Plain Text
Title : Full [SDH]
Language : English
Default : No
Forced : No
Menu
00:00:00.000 : en:00:00:00.000
00:05:35.585 : en:00:05:35.585
00:13:06.995 : en:00:13:06.995
00:18:13.384 : en:00:18:13.384
00:23:28.574 : en:00:23:28.574
00:29:22.678 : en:00:29:22.678
00:32:52.721 : en:00:32:52.721
00:38:39.692 : en:00:38:39.692
00:43:30.024 : en:00:43:30.024
00:56:18.250 : en:00:56:18.250
01:02:03.261 : en:01:02:03.261
01:07:48.523 : en:01:07:48.523
01:11:23.696 : en:01:11:23.696
01:16:11.108 : en:01:16:11.108
01:20:18.439 : en:01:20:18.439
01:24:41.743 : en:01:24:41.743



Релиз от: ivandubskoj


_________________
Проголосуй за трекер Открытый торрент трекер - RUS-MEDIA.ORG

Проголосуй Открытый торрент трекер - RUS-MEDIA.ORG



реклама партнёра


Вернуться к началу
 Профиль Отправить личное сообщение  
 
   Похожие торренты   Автор   Торрент   Размер 
В этой теме нет новых непрочитанных сообщений. Простое желание / A Simple Wish [Фэнтези, приключения, комедия, семейный, 1997] BDRip 720p, Mvo

salma3

4 | 1

4.42 ГБ

В этой теме нет новых непрочитанных сообщений. Простое существо / Simple Creature [фантастика, триллер, 2016] WEB-DLRip, Mvo

salma3

992 | 327

1.36 ГБ

В этой теме нет новых непрочитанных сообщений. Простое существо / Simple Creature [фантастика, триллер, 2016] WEB-DLRip 720p, Mvo

salma3

66 | 8

2.76 ГБ

В этой теме нет новых непрочитанных сообщений. Большое приключение Пи - Ви / Pee-wee's Big Adventure [фэнтези, комедия, приключения, семейный, 1985] BDRip 1080p, Dub+Sub

salma3

31 | 0

9.43 ГБ

В этой теме нет новых непрочитанных сообщений. Аисты / Storks [мультфильм, фэнтези, комедия, приключения, семейный, 2016] BDRip 1080p, Dub [Лицензия]

salma3

59 | 14

8.86 ГБ

В этой теме нет новых непрочитанных сообщений. Дом / Home (Тим Джонсон) [мультфильм, фантастика, фэнтези, комедия, приключения, семейный, 2015] BDRip 1080p, Dub [iTunes]

Dracon

67 | 6

4.62 ГБ

В этой теме нет новых непрочитанных сообщений. Дом / Home (Тим Джонсон) [мультфильм, фантастика, фэнтези, комедия, приключения, семейный, 2015] BDRip 1080p, Dub+Sub [лицензия]

Dracon

2 | 1

7.1 ГБ


Начать новую тему Ответить на тему  [ 1 сообщение ] 




Для Мосгорсуда, Роскомнадзора и рекламодателей:: mosgorsud-torrent[собачка]yandex.ru