Торрент файл
скачать торрент магнет ссылка Добавлен: 28 июл 2016, 12:31
Размер: 11.63 ГБ
Сидеров: 14
Личеров: 8
Автор

СообщениеДобавлено: 28 июл 2016, 12:31 

Не в сети
Супермодератор
Аватара пользователя
Дата регистрации:
15 фев 2012, 16:44
Возраст: 28
Спасибо: 7290 / 2147
Сообщения: 70489
Моя собачья жизнь / Mitt liv som hund
Страна: Швеция
Производство: Svensk Filmindustri (SF) AB, FilmTeknik
Год выпуска: 1985
Жанр: драма, комедия
Продолжительность: 01:41:57
Режиссер: Лассе Халльстрём
Авторы сценария: Лассе Халльстрём, Брассе Брэннстрём, Пер Берглунд

В ролях: Антон Гланзелиус, Томас фон Брёмссен, Анки Лиден, Мелинда Киннаман, Кикки Рундгрен, Леннарт Юльстрём, Инг-Мари Карлссон, Лейф Эриксон

Описание: Одиннадцатилетний Ингмар живёт вместе с матерью, которая больна туберкулезом, и со старшим братом. Отец по делам службы находится в Африке. Чтобы избавить мать от забот и дать ей немного подлечиться, парнишку отправляют на лето к дяде в отдалённый посёлок, где всё ему чуждо и непривычно. Но именно там Ингмар знакомится с Сагой, своей ровесницей, воспринимая её искреннюю влюблённость просто как мимолётную детскую причуду...



Перевод: Профессиональный (полное дублирование) | советский дубляж
Субтитры: русские, английские

Качество: BDRip 1080p
Формат: МКV
Видео кодек: AVC
Аудио кодек: АС3
Видео: 1800x1076 (1.673), 23.976 fps, MPEG-4 AVC ~15.6 Mbps avg
Аудио №1: 48.0 kHz, AC3 Dolby Digital, 2/0 (L,R) ch, ~192 kbps | RUS
Аудио №2: 48.0 kHz, AC3 Dolby Digital, 1.0 ch, ~448 kbps / 16 bits | SWE
Формат субтитров: UTF-8 Plain Text
Дата премьеры (мир): 12 декабря 1985


Премия Золотой глобус, 1988 год
» Лучший фильм на иностранном языке — «Швеция»
General
Complete name : Моя собачья жизнь (1985. My Life as a Dog).mkv
Format : Matroska
File size : 11.6 GiB
Duration : 1h 41mn
Overall bit rate : 16.3 Mbps
Movie name : My.Life.As.A.Dog.1985.BluRay.Criterion.Collection.1080p.AC3.x264-CHD
Encoded date : UTC 2011-09-25 01:14:47
Writing application : mkvmerge v4.9.1 ('Ich will') сборка от Jul 11 2011 23:53:15
Writing library : libebml v1.2.1 + libmatroska v1.1.1
Video
ID : 1
Format : AVC
Format/Info : Advanced Video Codec
Format profile : High@L4.1
Format settings, CABAC : Yes
Format settings, ReFrames : 4 frames
Muxing mode : Container profile=Unknown@4.1
Codec ID : V_MPEG4/ISO/AVC
Duration : 1h 41mn
Bit rate : 15.7 Mbps
Width : 1 800 pixels
Height : 1 076 pixels
Display aspect ratio : 1.673
Frame rate : 23.976 fps
Color space : YUV
Chroma subsampling : 4:2:0
Bit depth : 8 bits
Scan type : Progressive
Bits/(Pixel*Frame) : 0.338
Stream size : 10.9 GiB (94%)
Writing library : x264 core 116 r2074 2641b9e
Encoding settings : cabac=1 / ref=4 / deblock=1:-3:-3 / analyse=0x3:0x113 / me=umh / subme=11 / psy=1 / psy_rd=1.05:0.10 / mixed_ref=1 / me_range=48 / chroma_me=1 / trellis=2 / 8x8dct=1 / cqm=0 / deadzone=21,11 / fast_pskip=0 / chroma_qp_offset=-2 / threads=12 / sliced_threads=0 / nr=0 / decimate=1 / interlaced=0 / bluray_compat=0 / constrained_intra=0 / bframes=6 / b_pyramid=2 / b_adapt=2 / b_bias=0 / direct=3 / weightb=1 / open_gop=0 / weightp=2 / keyint=250 / keyint_min=23 / scenecut=40 / intra_refresh=0 / rc_lookahead=60 / rc=2pass / mbtree=1 / bitrate=15696 / ratetol=1.0 / qcomp=0.70 / qpmin=0 / qpmax=69 / qpstep=4 / cplxblur=20.0 / qblur=0.5 / vbv_maxrate=40000 / vbv_bufsize=30000 / nal_hrd=none / ip_ratio=1.40 / aq=2:0.90
Language : English
Audio #1
ID : 2
Format : AC-3
Format/Info : Audio Coding 3
Mode extension : CM (complete main)
Codec ID : A_AC3
Duration : 1h 41mn
Bit rate mode : Constant
Bit rate : 192 Kbps
Channel(s) : 2 channels
Channel positions : Front: L R
Sampling rate : 48.0 KHz
Bit depth : 16 bits
Stream size : 140 MiB (1%)
Title : Dub
Language : Russian
Audio #2
ID : 3
Format : AC-3
Format/Info : Audio Coding 3
Mode extension : CM (complete main)
Codec ID : A_AC3
Duration : 1h 41mn
Bit rate mode : Constant
Bit rate : 448 Kbps
Channel(s) : 1 channel
Channel positions : Front: C
Sampling rate : 48.0 KHz
Bit depth : 16 bits
Stream size : 327 MiB (3%)
Language : Swedish
Text #1
ID : 4
Format : UTF-8
Codec ID : S_TEXT/UTF8
Codec ID/Info : UTF-8 Plain Text
Language : Russian
Text #2
ID : 5
Format : UTF-8
Codec ID : S_TEXT/UTF8
Codec ID/Info : UTF-8 Plain Text
Language : English
Menu
00:00:00.000 : en:00:00:00.000
00:07:17.270 : en:00:07:17.270
00:12:26.162 : en:00:12:26.162
00:14:29.410 : en:00:14:29.410
00:20:04.078 : en:00:20:04.078
00:23:57.436 : en:00:23:57.436
00:26:07.983 : en:00:26:07.983
00:30:59.733 : en:00:30:59.733
00:32:36.288 : en:00:32:36.288
00:36:16.132 : en:00:36:16.132
00:39:43.047 : en:00:39:43.047
00:45:22.720 : en:00:45:22.720
00:50:09.673 : en:00:50:09.673
00:55:31.245 : en:00:55:31.245
01:00:40.303 : en:01:00:40.303
01:08:45.455 : en:01:08:45.455
01:14:55.825 : en:01:14:55.825
01:17:01.408 : en:01:17:01.408
01:22:17.516 : en:01:22:17.516
01:27:30.787 : en:01:27:30.787
01:33:54.963 : en:01:33:54.963
01:39:26.294 : en:01:39:26.294



_________________
Проголосуй за трекер Открытый торрент трекер - RUS-MEDIA.ORG

Проголосуй Открытый торрент трекер - RUS-MEDIA.ORG


Вернуться к началу
 Профиль Отправить личное сообщение  
 
   Похожие торренты   Автор   Торрент   Размер 
В этой теме нет новых непрочитанных сообщений. Моя собачья жизнь / Mitt liv som hund [драма, комедия, 1985] BDRemux 1080p, Dub

salma3

3 | 4

25.8 ГБ

В этой теме нет новых непрочитанных сообщений. Моя собачья жизнь / Mitt liv som hund [драма, комедия, 1985] BDRip 720p, Dub

salma3

23 | 9

4.51 ГБ

В этой теме нет новых непрочитанных сообщений. Собачья жизнь / A Dog's Purpose [Фэнтези, драма, комедия, 2017] BDRip 1080p, Dub [iTunes]

salma3

0 | 0

10.96 ГБ

В этой теме нет новых непрочитанных сообщений. Собачья жизнь / A Dog's Purpose [Фэнтези, драма, комедия, 2017] BDRip-AVC, Dub [iTunes]

salma3

2729 | 437

2.05 ГБ

В этой теме нет новых непрочитанных сообщений. Собачья жизнь / A Dog's Purpose [Фэнтези, драма, комедия, 2017] BDRemux 1080p, Dub [iTunes]

salma3

0 | 0

27.93 ГБ

В этой теме нет новых непрочитанных сообщений. Собачья жизнь / A Dog's Purpose [Фэнтези, драма, комедия, 2017] BDRip 720p, Dub [iTunes]

salma3

0 | 1

5.63 ГБ

В этой теме нет новых непрочитанных сообщений. К-911: Собачья работа 2 / K-911 [Боевик, комедия, 1999] BDRip 1080p, Mvo+Dvo+Avo+Sub

salma3

35 | 70

10.32 ГБ


Начать новую тему Ответить на тему  [ 1 сообщение ] 




Для Мосгорсуда, Роскомнадзора и рекламодателей:: mosgorsud-torrent[собачка]yandex.ru
cron