Торрент файл
скачать торрент магнет ссылка Добавлен: 28 июл 2016, 12:20
Размер: 8.96 ГБ
Сидеров: 26
Личеров: 8
Автор

СообщениеДобавлено: 28 июл 2016, 12:20 

Не в сети
Супермодератор
Аватара пользователя
Дата регистрации:
15 фев 2012, 16:44
Возраст: 28
Спасибо: 6643 / 2146
Сообщения: 45809
Год выхода: 1994
Страна: США
Студия: Castel Film Romania, Full Moon Entertainment
Продолжительность: 01:21:41
Жанр: ужасы, фэнтези, триллер
Режиссер: Тед Николау

В ролях: Андерс Хове, Денис Дафф, Кевин Спиртас, Мелани Шетнер, Памела Гордон, Йон Хайдук, Майкл Делла Фемина, Майкл Денич, Николае Урс, Раду Минкулеску, ...

Перевод: Авторский (одноголосый, закадровый) Гаврилов Андрей Юрьевич
О фильме: Напрасно герои думали, что Раду можно убить простым протыканием сердца. Страшная мамулька оживляет его вновь при помощи крови Мишель, которой не удалось покинуть пристанище-склеп из-за наступившего рассвета. Раду вновь полон сил и с наступлением сумерек, прихватив маму и рыпающуюся Мишель, он направился в свой замок. Ребекка, сестра Мишель, вместе со своим другом из американского посольства Мелом и полицейским Марином, а позже и знакомый Мела, который разодет как распоследний десантник собираются на решающую битву с кровососом. Вооружившись, они попытаются предпринять очередную попытку освободить Мишель от назойливого Раду…



Кодек: x264
Качество: BDRip 1080p
Видео: 1920x1080, 14000 kbps, 23,976 fps
Аудио #1: AC-3, 2 ch, 192 kbps (Rus) - AVO Гаврилов Андрей Юрьевич
Аудио #2: DTS, 6 ch, 1509 kbps (Eng)
Субтитры: нет
За исходник спасибо - Bess80
x264 [info]: frame I:713 Avg QP:16.00 size:200785
x264 [info]: frame P:24541 Avg QP:17.47 size: 99548
x264 [info]: frame B:92244 Avg QP:19.24 size: 64889
x264 [info]: consecutive B-frames: 2.1% 2.1% 7.3% 13.5% 12.8% 51.7% 5.5% 1.5% 1.6% 0.5% 0.4% 0.5% 0.5%
Общее
Уникальный идентификатор : 181436580037935906931102799166678822827 (0x887F6A0C4D8A41B78D892FB15704EFAB)
Полное имя : C:TorrentПодвиды 3 Жажда крови (Bloodlust Subspecies III) 1994 BDRip 1080p.mkv
Формат : Matroska
Версия формата : Version 2
Размер файла : 8,96 Гбайт
Продолжительность : 1 ч. 21 м.
Общий поток : 15,7 Мбит/сек
Дата кодирования : UTC 2016-07-25 04:44:09
Программа кодирования : mkvmerge v4.0.0 ('The Stars were mine') сборка от Jun 6 2010 16:18:42
Библиотека кодирования : libebml v1.0.0 + libmatroska v1.0.0
Видео
Идентификатор : 1
Формат : AVC
Формат/Информация : Advanced Video Codec
Профиль формата : High@L4.1
Параметр CABAC формата : Да
Параметр ReFrames формата : 4 кадра
Идентификатор кодека : V_MPEG4/ISO/AVC
Продолжительность : 1 ч. 21 м.
Битрейт : 14,0 Мбит/сек
Ширина : 1920 пикселей
Высота : 1080 пикселей
Соотношение сторон : 16:9
Режим частоты кадров : Постоянный
Частота кадров : 23,976 (24000/1001) кадра/сек
Цветовое пространство : YUV
Субдискретизация насыщенности : 4:2:0
Битовая глубина : 8 бит
Тип развёртки : Прогрессивная
Бит/(Пиксели*Кадры) : 0.282
Размер потока : 7,81 Гбайт (87%)
Библиотека кодирования : x264 core 146 r2538 121396c
Настройки программы : cabac=1 / ref=4 / deblock=1:-3:-3 / analyse=0x3:0x133 / me=umh / subme=11 / psy=1 / psy_rd=1.10:0.16 / mixed_ref=1 / me_range=32 / chroma_me=1 / trellis=2 / 8x8dct=1 / cqm=0 / deadzone=21,11 / fast_pskip=0 / chroma_qp_offset=-3 / threads=12 / lookahead_threads=2 / sliced_threads=0 / nr=0 / decimate=0 / interlaced=0 / bluray_compat=0 / constrained_intra=0 / bframes=12 / b_pyramid=2 / b_adapt=2 / b_bias=0 / direct=3 / weightb=1 / open_gop=0 / weightp=2 / keyint=240 / keyint_min=23 / scenecut=40 / intra_refresh=0 / rc_lookahead=60 / rc=2pass / mbtree=0 / bitrate=14000 / ratetol=1.0 / qcomp=0.60 / qpmin=0 / qpmax=69 / qpstep=4 / cplxblur=20.0 / qblur=0.5 / vbv_maxrate=50000 / vbv_bufsize=62500 / nal_hrd=none / filler=0 / ip_ratio=1.40 / pb_ratio=1.30 / aq=1:0.90
Язык : English
Default : Нет
Forced : Нет
Аудио #1
Идентификатор : 2
Формат : AC-3
Формат/Информация : Audio Coding 3
Расширение режима : CM (complete main)
Параметр Endianness формата : Big
Идентификатор кодека : A_AC3
Продолжительность : 1 ч. 21 м.
Вид битрейта : Постоянный
Битрейт : 192 Кбит/сек
Каналы : 2 канала
Расположение каналов : Front: L R
Частота : 48,0 КГц
Частота кадров : 31,250 кадров/сек (1536 spf)
Метод сжатия : С потерями
Размер потока : 112 Мбайт (1%)
Заголовок : AVO Гаврилов Андрей Юрьевич
Язык : Russian
Default : Нет
Forced : Нет
Аудио #2
Идентификатор : 3
Формат : DTS
Формат/Информация : Digital Theater Systems
Режим : 16
Параметр Endianness формата : Big
Идентификатор кодека : A_DTS
Продолжительность : 1 ч. 21 м.
Вид битрейта : Постоянный
Битрейт : 1509 Кбит/сек
Каналы : 6 каналов
Расположение каналов : Front: L C R, Side: L R, LFE
Частота : 48,0 КГц
Частота кадров : 93,750 кадра/сек (512 spf)
Битовая глубина : 16 бит
Метод сжатия : С потерями
Размер потока : 882 Мбайт (10%)
Язык : English
Default : Нет
Forced : Нет



_________________
Проголосуй за трекер Открытый торрент трекер - RUS-MEDIA.ORG

Проголосуй Открытый торрент трекер - RUS-MEDIA.ORG



реклама партнёра


Вернуться к началу
 Профиль Отправить личное сообщение  
 
   Похожие торренты   Автор   Торрент   Размер 
В этой теме нет новых непрочитанных сообщений. Подвиды 3: Жажда крови / Bloodlust: Subspecies III [ужасы, фэнтези, триллер, 1994] BDRip, Avo

salma3

15 | 7

1.45 ГБ

В этой теме нет новых непрочитанных сообщений. Подвиды 3: Жажда Крови / Bloodlust: Subspecies III [ужасы, фэнтези, триллер, 1994] BDRemux 1080p, Avo

salma3

7 | 3

15.34 ГБ

В этой теме нет новых непрочитанных сообщений. Подвиды 3: Жажда Крови / Bloodlust: Subspecies III [ужасы, фэнтези, триллер, 1994] BDRip 720р, Avo

salma3

0 | 0

3.8 ГБ

В этой теме нет новых непрочитанных сообщений. Подвиды 3: Жажда крови / Bloodlust: Subspecies III [ужасы, фэнтези, триллер, 1994] HDRip-AVC, Avo

salma3

15 | 4

745.27 МБ

В этой теме нет новых непрочитанных сообщений. Подвиды 2: Кровавый камень / Bloodstone: Subspecies II [Ужасы, Фэнтези, 1993] BDRip-AVC, Avo

salma3

0 | 3

2.18 ГБ

В этой теме нет новых непрочитанных сообщений. Подвиды 2: Кровавый камень / Bloodstone: Subspecies II [ужасы, фэнтези, триллер, 1993] HDRip-AVC, Avo

salma3

16 | 9

745.38 МБ

В этой теме нет новых непрочитанных сообщений. Жаждущие крови зомби / Bloodlust Zombies [ужасы, 2011] DVDRip, Avo

salma3

16 | 4

1.38 ГБ


Начать новую тему Ответить на тему  [ 1 сообщение ] 




Для Мосгорсуда, Роскомнадзора и рекламодателей:: mosgorsud-torrent[собачка]yandex.ru