Торрент файл
скачать торрент магнет ссылка Добавлен: 27 июл 2016, 11:38
Размер: 8.96 ГБ
Сидеров: 74
Личеров: 6
Автор

СообщениеДобавлено: 27 июл 2016, 11:38 

Не в сети
Супермодератор
Аватара пользователя
Дата регистрации:
15 фев 2012, 16:44
Возраст: 29
Спасибо: 7379 / 2147
Сообщения: 76077
Перевод: Любительский (многоголосый, закадровый) / Parovoz Production
Субтитры: английские
Формат: BDRip, MKV, H.264, AC3 / DTS
Страна: Канада
Режиссер: Стивен С. Миллер
Жанр: боевик
Продолжительность: 01:47:07
Год выпуска: 2016

В ролях: Брюс Уиллис, Кристофер Мелони, Дэйв Батиста, Эдриан Гренье, Лидия Халл, Тайлер Джон Олсон, Кристофер Роб Бауэн, Ричи Чэнс, Дэнни А. Абекейзер

Описание: История об агенте ФБР, который нападает на след преступников, ограбивших банк и отдавших все украденные деньги на благотворительные нужды. Чем дальше продвигается расследование, тем больше главный герой убеждается в том, что у владельца банка имеются собственные секреты.

Рейтинг на КиноПоиск: 5.191
Рейтинг на IMDb: 5.4/10
Рейтинг MPAA: R

Видео: 1920x1080p (16:9), 23.976fps, AVC/ H.264, , 10.8 Mbps, 0.198 Bits/(Pixel*Frame)
Аудио#1: русский AC3, 48 KHz, 6ch, 384 Kbps [Любительский (многоголосый, закадровый) / Parovoz Production]
Аудио#2: английский DTS, 48 KHz, 6ch, 1510 Kbps [Оригинал]

General
Format : Matroska
Format version : Version 4 / Version 2
File size : 8.96 GiB
Duration : 1h 47mn
Overall bit rate mode : Variable
Overall bit rate : 12.0 Mbps
Encoded date : UTC 2016-07-24 16:02:18
Writing application : mkvmerge v6.1.0 ('Old Devil') built on Mar 4 2013 09:10:42
Writing library : libebml v1.3.0 + libmatroska v1.4.0

Video
ID : 3
Format : AVC
Format/Info : Advanced Video Codec
Format profile :
Format settings, CABAC : Yes
Format settings, ReFrames : 4 frames
Codec ID : V_MPEG4/ISO/AVC
Duration : 1h 47mn
Bit rate mode : Variable
Bit rate : 9 842 Kbps
Maximum bit rate : 10.8 Mbps
Width : 1 920 pixels
Height : 1 080 pixels
Display aspect ratio : 16:9
Frame rate : 23.976 fps
Standard : NTSC
Color space : YUV
Chroma subsampling : 4:2:0
Bit depth : 8 bits
Scan type : Progressive
Bits/(Pixel*Frame) : 0.198
Stream size : 7.37 GiB (82%)
Default : Yes
Forced : No
Color primaries : BT.709-5, BT.1361, IEC 61966-2-4, SMPTE RP177
Transfer characteristics : BT.709-5, BT.1361
Matrix coefficients : BT.709-5, BT.1361, IEC 61966-2-4 709, SMPTE RP177

Audio #1
ID : 1
Format : AC-3
Format/Info : Audio Coding 3
Mode extension : CM (complete main)
Codec ID : A_AC3
Duration : 1h 47mn
Bit rate mode : Constant
Bit rate : 384 Kbps
Channel(s) : 6 channels
Channel positions : Front: L C R, Side: L R, LFE
Sampling rate : 48.0 KHz
Bit depth : 16 bits
Compression mode : Lossy
Stream size : 294 MiB (3%)
Title : rustorrents.info
Language : Russian
Default : Yes
Forced : Yes

Audio #2
ID : 4
Format : DTS
Format/Info : Digital Theater Systems
Codec ID : A_DTS
Duration : 1h 47mn
Bit rate mode : Constant
Bit rate : 1 510 Kbps
Channel(s) : 6 channels
Channel positions : Front: L C R, Side: L R, LFE
Sampling rate : 48.0 KHz
Bit depth : 16 bits
Compression mode : Lossy
Stream size : 1.13 GiB (13%)
Default : No
Forced : No

Text
ID : 2
Format : UTF-8
Codec ID : S_TEXT/UTF8
Codec ID/Info : UTF-8 Plain Text
Language : English
Default : Yes
Forced : No




_________________
Проголосуй за трекер Открытый торрент трекер - RUS-MEDIA.ORG

Проголосуй Открытый торрент трекер - RUS-MEDIA.ORG


Вернуться к началу
 Профиль Отправить личное сообщение  
 
   Похожие торренты   Автор   Торрент   Размер 
В этой теме нет новых непрочитанных сообщений. Налётчики / Marauders [боевик, 2016] WEB-DL 1080p. Mvo

salma3

61 | 6

3.84 ГБ

В этой теме нет новых непрочитанных сообщений. Налетчики / Marauders [Боевик, 2016] BDRip, Dub [iTunes ]

salma3

403 | 58

1.41 ГБ

В этой теме нет новых непрочитанных сообщений. Налетчики / Marauders [боевик, триллер, криминал, 2016] BDRip-AVC, Avo

salma3

136 | 60

1.41 ГБ

В этой теме нет новых непрочитанных сообщений. Налетчики / Marauders [боевик, триллер, криминал, 2016] BDRip-AVC, Avo

salma3

191 | 28

2.13 ГБ

В этой теме нет новых непрочитанных сообщений. Мальчики-налетчики / Takers [Боевик, криминал, 2010] HDRip, Dub [КПК]

salma3

0 | 0

357.43 МБ

В этой теме нет новых непрочитанных сообщений. Налётчики из Голливуда / Hollywood Flies [боевик, криминал, 2004] DVDRip, Dvo

salma3

39 | 3

1.46 ГБ

В этой теме нет новых непрочитанных сообщений. Налётчики во времени / Расхитители времени / Time Raiders / Daomu biji [приключения, 2016] WEB-DLRip-AVC, Dvo

marya111

136 | 18

1.46 ГБ


Начать новую тему Ответить на тему  [ 1 сообщение ] 




Для Мосгорсуда, Роскомнадзора и рекламодателей:: mosgorsud-torrent[собачка]yandex.ru
cron