Торрент файл
скачать торрент магнет ссылка Добавлен: 20 июл 2016, 20:14
Размер: 14.26 ГБ
Сидеров: 57
Личеров: 19
Автор

СообщениеДобавлено: 20 июл 2016, 20:14 

Не в сети
Супермодератор
Аватара пользователя
Дата регистрации:
15 фев 2012, 16:44
Возраст: 29
Спасибо: 7328 / 2147
Сообщения: 73737
Год выхода: 2016
Жанр: Драма, мелодрама
Режиссер: Джузеппе Торнаторе

В ролях: Ольга Куриленко, Джереми Айронс, Шона МакДональд, Анна Савва, Джеймс Смилли, Саймон Микок, Джерри Квартенг, Род Гленн, Джеймс Блур, Ирина Кара

О фильме:
Эд и Эми — ученый и студентка, изучающие теорию струн и космических двойников, вселенную и параллельные измерения. Они — родственные души, созданные друг для друга. Их любовь не знает границ и расстояний. Но внезапно Эд исчезает. И все, что у нее остается — это регулярно приходящие от него послания. В какую игру втягивают Эми? Эксперимент ученого, решившего скрыться от мира? Или игру высших сил, посылающих ей любимого в чужих обличьях? Или она продолжает видеть свет погасшей звезды?

Страна: Италия
Студия: Business Location Sudtirol Alto Adige, Film Commission Torino-Piemonte, Ministero per i Beni e le Attività Culturali
Продолжительность: 02:02:07
Перевод: Дублированный
Файл
Кодек: h.264
Качество: BDRip 1080p
Видео: MPEG-4 AVC, 13500 Кбит/с, 1920x800, 23.976 кадр/с
Звук:
Русский (AC3, 2 ch, 192 Кбит/с) / Дублированный (НТВ+)
Итальянский (DTS, 6 ch, 1509 Кбит/с)
Английский (DTS, 6 ch, 1509 Кбит/с)
Субтитры: Английские, итальянские
Семпл
Автор релиза - Silverok, За BDRemux спасибо marchelush
Субтитры: S_TEXT/UTF8 (SRT) - Английские, итальянские
Сохранены оригинальные главы как на Blu-ray
Полное отсутствие рекламы сторонних ресурсов,в отличие от других трекеров!
Цитатаmarchelush писал:
Нет, это не LINE. Спасибо т/к ПРЕМЬЕРА НТВ-ПЛЮС за русскую дорожку.

Общее
Уникальный идентификатор : 180402751792565509204115527996130063447 (0x87B84E6155CA2639B0F44DB68FC1F457)
Полное имя : D:uTorrentDvoe.vo.vselennoi.2016.BDRip.1080p.MediaClub.mkv
Формат : Matroska
Версия формата : Version 4 / Version 2
Размер файла : 14,3 Гбайт
Продолжительность : 2 ч. 2 м.
Общий поток : 16,7 Мбит/сек
Дата кодирования : UTC 2016-07-20 10:14:38
Программа кодирования : mkvmerge v8.9.0 ('Father Daughter') 64bit
Библиотека кодирования : libebml v1.3.3 + libmatroska v1.4.4
Видео
Идентификатор : 1
Формат : AVC
Формат/Информация : Advanced Video Codec
Профиль формата : High@L4.1
Параметр CABAC формата : Да
Параметр ReFrames формата : 4 кадра
Идентификатор кодека : V_MPEG4/ISO/AVC
Продолжительность : 2 ч. 2 м.
Битрейт : 13,5 Мбит/сек
Ширина : 1920 пикселей
Высота : 800 пикселей
Соотношение сторон : 2,40:1
Режим частоты кадров : Постоянный
Частота кадров : 23,976 (24000/1001) кадра/сек
Цветовое пространство : YUV
Субдискретизация насыщенности : 4:2:0
Битовая глубина : 8 бит
Тип развёртки : Прогрессивная
Бит/(Пиксели*Кадры) : 0.367
Размер потока : 11,5 Гбайт (81%)
Заголовок : BDRip by Silverok
Библиотека кодирования : x264 core 148 r2638 7599210
Настройки программы : cabac=1 / ref=4 / deblock=1:-3:-3 / analyse=0x3:0x113 / me=umh / subme=11 / psy=1 / psy_rd=1.15:0.15 / mixed_ref=1 / me_range=48 / chroma_me=1 / trellis=2 / 8x8dct=1 / cqm=0 / deadzone=21,11 / fast_pskip=1 / chroma_qp_offset=-3 / threads=12 / lookahead_threads=3 / sliced_threads=0 / nr=0 / decimate=1 / interlaced=0 / bluray_compat=0 / constrained_intra=0 / bframes=12 / b_pyramid=2 / b_adapt=2 / b_bias=0 / direct=3 / weightb=1 / open_gop=0 / weightp=2 / keyint=240 / keyint_min=24 / scenecut=40 / intra_refresh=0 / rc_lookahead=60 / rc=2pass / mbtree=1 / bitrate=13500 / ratetol=1.0 / qcomp=0.60 / qpmin=10 / qpmax=61 / qpstep=4 / cplxblur=20.0 / qblur=0.5 / ip_ratio=1.40 / aq=1:1.20
Default : Да
Forced : Нет
Аудио #1
Идентификатор : 2
Формат : AC-3
Формат/Информация : Audio Coding 3
Расширение режима : CM (complete main)
Параметр Endianness формата : Big
Идентификатор кодека : A_AC3
Продолжительность : 2 ч. 2 м.
Вид битрейта : Постоянный
Битрейт : 192 Кбит/сек
Каналы : 2 канала
Расположение каналов : Front: L R
Частота : 48,0 КГц
Частота кадров : 31,250 кадров/сек (1536 spf)
Метод сжатия : С потерями
Размер потока : 168 Мбайт (1%)
Заголовок : Дубляж (НТВ+)
Язык : Russian
Default : Да
Forced : Да
Аудио #2
Идентификатор : 3
Формат : DTS
Формат/Информация : Digital Theater Systems
Режим : 16
Параметр Endianness формата : Big
Идентификатор кодека : A_DTS
Продолжительность : 2 ч. 2 м.
Вид битрейта : Постоянный
Битрейт : 1509 Кбит/сек
Каналы : 6 каналов
Расположение каналов : Front: L C R, Side: L R, LFE
Частота : 48,0 КГц
Частота кадров : 93,750 кадра/сек (512 spf)
Битовая глубина : 16 бит
Метод сжатия : С потерями
Размер потока : 1,29 Гбайт (9%)
Заголовок : DTS 6ch 1509 Кбит/сек
Язык : Italian
Default : Нет
Forced : Нет
Аудио #3
Идентификатор : 4
Формат : DTS
Формат/Информация : Digital Theater Systems
Режим : 16
Параметр Endianness формата : Big
Идентификатор кодека : A_DTS
Продолжительность : 2 ч. 2 м.
Вид битрейта : Постоянный
Битрейт : 1509 Кбит/сек
Каналы : 6 каналов
Расположение каналов : Front: L C R, Side: L R, LFE
Частота : 48,0 КГц
Частота кадров : 93,750 кадра/сек (512 spf)
Битовая глубина : 16 бит
Метод сжатия : С потерями
Размер потока : 1,29 Гбайт (9%)
Заголовок : DTS 6ch 1509 Кбит/сек
Язык : English
Default : Нет
Forced : Нет
Текст #1
Идентификатор : 5
Формат : UTF-8
Идентификатор кодека : S_TEXT/UTF8
Идентификатор кодека/Информация : UTF-8 Plain Text
Продолжительность : 1 ч. 55 м.
Битрейт : 49 бит/сек
Count of elements : 1128
Размер потока : 41,6 Кбайт (0%)
Язык : English
Default : Нет
Forced : Нет
Текст #2
Идентификатор : 6
Формат : UTF-8
Идентификатор кодека : S_TEXT/UTF8
Идентификатор кодека/Информация : UTF-8 Plain Text
Продолжительность : 1 ч. 55 м.
Битрейт : 53 бит/сек
Count of elements : 1239
Размер потока : 45,4 Кбайт (0%)
Язык : Italian
Default : Нет
Forced : Нет
Меню
00:00:00.000 : en:
00:07:28.155 : en:
00:16:56.349 : en:
00:24:10.991 : en:
00:28:58.737 : en:
00:35:40.971 : en:
00:43:19.555 : en:
00:55:04.134 : en:
01:00:54.025 : en:
01:13:10.844 : en:
01:21:01.982 : en:
01:27:02.759 : en:
01:35:46.448 : en:
01:41:21.117 : en:
01:48:46.520 : en:
01:54:49.341 : en:


Релиз от: | Silverok


_________________
Проголосуй за трекер Открытый торрент трекер - RUS-MEDIA.ORG

Проголосуй Открытый торрент трекер - RUS-MEDIA.ORG


Вернуться к началу
 Профиль Отправить личное сообщение  
 
   Похожие торренты   Автор   Торрент   Размер 
В этой теме нет новых непрочитанных сообщений. Повелители вселенной / Властелины вселенной / Masters of the Universe [фантастика, фэнтези, боевик, триллер, приключения, 1987] BDRip 1080p, Mvo

salma3

3 | 2

11.93 ГБ

В этой теме нет новых непрочитанных сообщений. Двое в пути / Two for the Road [драма, мелодрама, комедия, 1967] BDRip, Dvo

salma3

0 | 1

2.18 ГБ

В этой теме нет новых непрочитанных сообщений. Двое в городе / Two Men in Town (Рашид Бушареб) [Драма, 2014] BDRip 1080p, Mvo

Dracon

8 | 1

8.1 ГБ

В этой теме нет новых непрочитанных сообщений. Двое и одна [драма, мелодрама, 1988] DVDRip

salma3

2 | 3

1.37 ГБ

В этой теме нет новых непрочитанных сообщений. Двое / Deux [драма, мелодрама, 1989] DVDRip, Mvo

salma3

16 | 14

2.01 ГБ

В этой теме нет новых непрочитанных сообщений. Выбор / The Choice [Драма, мелодрама, 2016] BDRip 1080p, Dub [Лицензия]

salma3

29 | 20

14.11 ГБ

В этой теме нет новых непрочитанных сообщений. Служанка / Agasshi [Драма, мелодрама, детектив, 2016] BDRip 1080p, Dub

salma3

13 | 13

10.98 ГБ


Начать новую тему Ответить на тему  [ 1 сообщение ] 




Для Мосгорсуда, Роскомнадзора и рекламодателей:: mosgorsud-torrent[собачка]yandex.ru
cron