Торрент файл
скачать торрент магнет ссылка Добавлен: 15 июл 2016, 11:50
Размер: 4.26 ГБ
Сидеров: 62
Личеров: 9
Автор

СообщениеДобавлено: 15 июл 2016, 11:50 

Не в сети
Супермодератор
Аватара пользователя
Дата регистрации:
15 фев 2012, 16:44
Возраст: 28
Спасибо: 6672 / 2146
Сообщения: 46181
Страна: США Мексика
Производство: Metro-Goldwyn-Mayer (MGM), Showtime Networks Inc., Ventanarosa Productions
Год выпуска: 2001
Жанр: триллер, драма, мелодрама, криминал, история
Продолжительность: 01:28:16

Режиссер: Мариано Барросо
Авторы сценария: Хулия Альварес, Джуди Класс, Дэвид Класс

В ролях: Сальма Хайек, Эдвард Джеймс Олмос, Миа Маэстро, Демиан Бишир, Пилар Падилья, Луми Кавасос, Марк Энтони, Педро Армендарис мл., Ана Мартин

Описание: В ноябре 1960 года на северном побережье Доминиканской Республики обнаружили три женских трупа. Полиция установила, что тела принадлежат сёстрам Мирабель, которых все называли Бабочками. Официальной версией гибели девушек стала смерть в результате несчастного случая. Но слишком странные обстоятельства трагедии заставили власти и журналистов провести дополнительное расследование, в ходе которого выяснились шокирующие факты из жизни Бабочек…

Перевод: Профессиональный (двухголосый, закадровый) | НТВ+ + Профессиональный (многоголосый, закадровый)
Субтитры: английские


Качество: HDTV 1080i
Формат: МКV
Видео кодек: AVC
Аудио кодек: АС3
Видео: 1920x1080 (16:9), 25.000 fps, MPEG-4 AVC ~6 190 kbps
Аудио №1: 48.0 kHz, AC3 Dolby Digital, 2/0 (L,R) ch, ~192 kbps | DVO
Аудио №2: 48.0 kHz, AC3 Dolby Digital, 2/0 (L,R) ch, ~192 kbps | MVO
Аудио №3: 48.0 kHz, AC3 Dolby Digital, 2/0 (L,R) ch, ~192 kbps | ENG
Формат субтитров: UTF-8 Plain Text

Дата премьеры (мир): 21 октября 2001

General
Complete name : Времена бабочек.mkv
Format : Matroska
File size : 4.26 GiB
Duration : 1h 28mn
Overall bit rate : 6 904 Kbps
Encoded date : UTC 2013-04-27 05:13:34
Writing application : mkvmerge v5.7.0 ('The Whirlwind') built on Jul 8 2012 20:08:51
Writing library : libebml v1.2.3 + libmatroska v1.3.0

Video
ID : 1
Format : AVC
Format/Info : Advanced Video Codec
Format profile : High@L4.0
Format settings, CABAC : Yes
Format settings, ReFrames : 3 frames
Format settings, GOP : M=1, N=64
Muxing mode : Container profile=Unknown@4.0
Codec ID : V_MPEG4/ISO/AVC
Duration : 1h 28mn
Bit rate : 6 190 Kbps
Width : 1 920 pixels
Height : 1 080 pixels
Display aspect ratio : 16:9
Frame rate : 50.000 fps
Original frame rate : 25.000 fps
Standard : Component
Color space : YUV
Chroma subsampling : 4:2:0
Bit depth : 8 bits
Scan type : Interlaced
Scan order : Top Field First
Bits/(Pixel*Frame) : 0.060
Stream size : 3.82 GiB (90%)
Title : Времена бабочек
Color primaries : BT.709-5, BT.1361, IEC 61966-2-4, SMPTE RP177
Transfer characteristics : BT.709-5, BT.1361
Matrix coefficients : BT.709-5, BT.1361, IEC 61966-2-4 709, SMPTE RP177

Audio #1
ID : 2
Format : AC-3
Format/Info : Audio Coding 3
Mode extension : CM (complete main)
Codec ID : A_AC3
Duration : 1h 28mn
Bit rate mode : Constant
Bit rate : 192 Kbps
Channel(s) : 2 channels
Channel positions : Front: L R
Sampling rate : 48.0 KHz
Bit depth : 16 bits
Stream size : 121 MiB (3%)
Title : Времена бабочек_DVO

Audio #2
ID : 3
Format : AC-3
Format/Info : Audio Coding 3
Mode extension : CM (complete main)
Codec ID : A_AC3
Duration : 1h 28mn
Bit rate mode : Constant
Bit rate : 192 Kbps
Channel(s) : 2 channels
Channel positions : Front: L R
Sampling rate : 48.0 KHz
Bit depth : 16 bits
Stream size : 121 MiB (3%)
Title : Времена бабочек_MVO

Audio #3
ID : 4
Format : AC-3
Format/Info : Audio Coding 3
Mode extension : CM (complete main)
Codec ID : A_AC3
Duration : 1h 28mn
Bit rate mode : Constant
Bit rate : 192 Kbps
Channel(s) : 2 channels
Channel positions : Front: L R
Sampling rate : 48.0 KHz
Bit depth : 16 bits
Stream size : 121 MiB (3%)
Title : Времена бабочек_original_eng

Text
ID : 5
Format : UTF-8
Codec ID : S_TEXT/UTF8
Codec ID/Info : UTF-8 Plain Text
Title : sub_eng



_________________
Проголосуй за трекер Открытый торрент трекер - RUS-MEDIA.ORG

Проголосуй Открытый торрент трекер - RUS-MEDIA.ORG



реклама партнёра


Вернуться к началу
 Профиль Отправить личное сообщение  
 
   Похожие торренты   Автор   Торрент   Размер 
В этой теме нет новых непрочитанных сообщений. Простая история ( Боевик, военный, драма, мелодрама, 2016) HDTV 1080i от MediaClub

marya111

118 | 20

4.83 ГБ

В этой теме нет новых непрочитанных сообщений. Крутые времена / Hard Time [боевик, драма, криминал, 1998] DVDRip, Avo

salma3

3 | 1

1.14 ГБ

В этой теме нет новых непрочитанных сообщений. Ангелы с железными зубами / Iron Jawed Angels [Мелодрама, драма, история, 2004] HDTV 1080i, Mvo

salma3

11 | 9

7.11 ГБ

В этой теме нет новых непрочитанных сообщений. Таинственное свидание / Mystery Date [триллер, мелодрама, криминал, 1991] HDTV 1080i, Dvo

salma3

60 | 41

4.73 ГБ

В этой теме нет новых непрочитанных сообщений. Укради меня [Серия 1-2 из 2] [Драма, Криминал, Мелодрама, 2016] HDTV 1080i

Dracon

0 | 1

10.36 ГБ

В этой теме нет новых непрочитанных сообщений. Тормоз / The Cooler [фэнтези, драма, мелодрама, криминал, 2003] HDTV 1080i, Mvo

salma3

40 | 11

13.4 ГБ

В этой теме нет новых непрочитанных сообщений. Ничья земля / No Man's Land [триллер, драма, криминал, 1987] HDTV 1080i, Dvo

salma3

0 | 0

5.34 ГБ


Начать новую тему Ответить на тему  [ 1 сообщение ] 




Для Мосгорсуда, Роскомнадзора и рекламодателей:: mosgorsud-torrent[собачка]yandex.ru