Торрент файл
скачать торрент магнет ссылка Добавлен: 03 июл 2016, 21:42
Размер: 3.23 ГБ
Сидеров: 14
Личеров: 4
Автор

СообщениеДобавлено: 03 июл 2016, 21:42 

Не в сети
Супермодератор
Аватара пользователя
Дата регистрации:
15 фев 2012, 16:44
Возраст: 28
Спасибо: 7290 / 2147
Сообщения: 70618
Год выхода: 1987
Жанр: драма, приключения
Режиссер: Джефф Блекнер

В ролях:
Шон Астин — Алан, Кевин Бэйкон — Вик, Джонотан Уорд — Митч, К. С. Мартел — Джордж, Мэтт Эдлер — Крис, Чарльз Сиберт — Джерри Блок, Кэролайн Мак Уильямс — Виржиния Блок, Джозеф Пассеррелли — владелец магазина.

О фильме:
Классический пример «пубертатной драмы», связанной с мироощущением, психологией, поведением подростков. О событиях своего детства рассказывает повзрослевший Элан. Зритель переносится вместе с ним в дни, когда Элан и три других, более старших подростка под руководством молодого инструктора Вика отправились в поход. Лес, горы, бурная река, мост над пропастью… Романтика! Но одна ли романтика?



Страна: США
Студия: Columbia Pictures Corporation, Polar Entertainment
Продолжительность: 01:29:45
Перевод: Профессиональный многоголосый, Оригинал
Файл
Качество: WEB-DL 720p
Видео: 1280x542 (2,35:1), 23.976 fps, MPEG-4 AVC, 3959 Kbps
Звук:
Аудио #1: AC3, 192 Kbps, 48.0 KHz, 2 ch (Rus) Профессиональный многоголосый, OPT
Аудио #2: AC3, 192 Kbps, 48.0 KHz, 2 ch (Rus) Профессиональный многоголосый, НТВ
Аудио #3: AC3, 192 Kbps, 48.0 KHz, 2 ch (Rus) Профессиональный многоголосый, СТС
Аудио #4: AAC, 48.0 KHz, 2 ch (Eng) Оригинал
Аудио #5: AC3, 384 Kbps, 48.0 KHz, 6 ch (Eng) Оригинал
Субтитры: Русские, Английские


Формат : Matroska
Версия формата : Version 2
Размер файла : 3,23 Гбайт
Продолжительность : 1 ч. 29 м.
Общий поток : 5149 Кбит/сек
Дата кодирования : UTC 2016-06-27 12:00:24
Программа кодирования : mkvmerge v5.4.0 ('Piper') built on Mar 10 2012 13:34:39
Библиотека кодирования : libebml v1.2.3 + libmatroska v1.3.0
Видео
Идентификатор : 1
Формат : AVC
Формат/Информация : Advanced Video Codec
Профиль формата : Main@L3.1
Параметр CABAC формата : Нет
Параметр ReFrames формата : 2 кадра
Идентификатор кодека : V_MPEG4/ISO/AVC
Продолжительность : 1 ч. 29 м.
Ширина : 1280 пикселей
Высота : 542 пикселя
Соотношение сторон : 2,35:1
Режим частоты кадров : Постоянный
Частота кадров : 23,976 кадра/сек
Цветовое пространство : YUV
Субдискретизация насыщенности : 4:2:0
Битовая глубина : 8 бит
Тип развёртки : Прогрессивная
Заголовок : White Water Summer / Лето белой воды / Лето у белой воды / Ревущие воды (1987)
Язык : English
Default : Да
Forced : Нет
Основные цвета : BT.709
Характеристики трансфера : BT.709
Коэффициенты матрицы : BT.709
colour_range : Limited
Аудио #1
Идентификатор : 2
Формат : AC-3
Формат/Информация : Audio Coding 3
Расширение режима : CM (complete main)
Параметр Endianness формата : Big
Идентификатор кодека : A_AC3
Продолжительность : 1 ч. 29 м.
Вид битрейта : Постоянный
Битрейт : 192 Кбит/сек
Каналы : 2 канала
Расположение каналов : Front: L R
Частота : 48,0 КГц
Битовая глубина : 16 бит
Метод сжатия : С потерями
Размер потока : 123 Мбайт (4%)
Заголовок : MVO (Russian) OPT
Язык : Russian
Default : Да
Forced : Нет
Аудио #2
Идентификатор : 3
Формат : AC-3
Формат/Информация : Audio Coding 3
Расширение режима : CM (complete main)
Параметр Endianness формата : Big
Идентификатор кодека : A_AC3
Продолжительность : 1 ч. 29 м.
Вид битрейта : Постоянный
Битрейт : 192 Кбит/сек
Каналы : 2 канала
Расположение каналов : Front: L R
Частота : 48,0 КГц
Битовая глубина : 16 бит
Метод сжатия : С потерями
Размер потока : 123 Мбайт (4%)
Заголовок : MVO (Russian) НТВ
Язык : Russian
Default : Нет
Forced : Нет
Аудио #3
Идентификатор : 4
Формат : AC-3
Формат/Информация : Audio Coding 3
Расширение режима : CM (complete main)
Параметр Endianness формата : Big
Идентификатор кодека : A_AC3
Продолжительность : 1 ч. 29 м.
Вид битрейта : Постоянный
Битрейт : 192 Кбит/сек
Каналы : 2 канала
Расположение каналов : Front: L R
Частота : 48,0 КГц
Битовая глубина : 16 бит
Метод сжатия : С потерями
Размер потока : 123 Мбайт (4%)
Заголовок : MVO (Russian) СТС
Язык : Russian
Default : Нет
Forced : Нет
Аудио #4
Идентификатор : 5
Формат : AAC
Формат/Информация : Advanced Audio Codec
Профиль формата : LC
Идентификатор кодека : A_AAC
Продолжительность : 1 ч. 29 м.
Каналы : 2 канала
Расположение каналов : Front: L R
Частота : 48,0 КГц
Метод сжатия : С потерями
Заголовок : Original (English)
Язык : English
Default : Нет
Forced : Нет
Аудио #5
Идентификатор : 6
Формат : AC-3
Формат/Информация : Audio Coding 3
Расширение режима : CM (complete main)
Параметр Endianness формата : Big
Идентификатор кодека : A_AC3
Продолжительность : 1 ч. 29 м.
Вид битрейта : Постоянный
Битрейт : 384 Кбит/сек
Каналы : 6 каналов
Расположение каналов : Front: L C R, Side: L R, LFE
Частота : 48,0 КГц
Битовая глубина : 16 бит
Метод сжатия : С потерями
Размер потока : 246 Мбайт (7%)
Заголовок : Original (English)
Язык : English
Default : Нет
Forced : Нет
Текст #1
Идентификатор : 7
Формат : UTF-8
Идентификатор кодека : S_TEXT/UTF8
Идентификатор кодека/Информация : UTF-8 Plain Text
Заголовок : Rus
Язык : Russian
Default : Нет
Forced : Нет
Текст #2
Идентификатор : 8
Формат : UTF-8
Идентификатор кодека : S_TEXT/UTF8
Идентификатор кодека/Информация : UTF-8 Plain Text
Заголовок : Eng
Язык : English
Default : Нет
Forced : Нет

Релиз от: koharubiyori


_________________
Проголосуй за трекер Открытый торрент трекер - RUS-MEDIA.ORG

Проголосуй Открытый торрент трекер - RUS-MEDIA.ORG


Вернуться к началу
 Профиль Отправить личное сообщение  
 
   Похожие торренты   Автор   Торрент   Размер 
В этой теме нет новых непрочитанных сообщений. Форма воды / The Shape of Water [Фэнтези, драма, приключения, 2017] BDRip 720p, Dub [iTunes]

salma3

318 | 190

8.11 ГБ

В этой теме нет новых непрочитанных сообщений. Форма воды / The Shape of Water [Фэнтези, драма, приключения, 2017] BDRip 720p, Dub [Лицензия ]

salma3

0 | 0

9.02 ГБ

В этой теме нет новых непрочитанных сообщений. Форма воды / The Shape of Water [Фэнтези, драма, приключения, 2017] BDRip-AVC, Dub [iTunes]

salma3

92 | 9

2.54 ГБ

В этой теме нет новых непрочитанных сообщений. Форма воды / The Shape of Water [Фэнтези, драма, приключения, 2017] BDRip, Dub [iTunes]

salma3

5758 | 542

1.46 ГБ

В этой теме нет новых непрочитанных сообщений. Форма воды / The Shape of Water [Фэнтези, драма, приключения, 2017] BDRip, Dub [Лицензия ]

salma3

15 | 6

1.46 ГБ

В этой теме нет новых непрочитанных сообщений. Форма воды / The Shape of Water [Фэнтези, драма, приключения, 2017] BDRip-AVC, Dub [iTunes]

salma3

23 | 7

802.2 МБ

В этой теме нет новых непрочитанных сообщений. Форма воды / The Shape of Water [Фэнтези, драма, приключения, 2017] BDRip, Dub [Лицензия ]

salma3

0 | 0

2.18 ГБ


Начать новую тему Ответить на тему  [ 1 сообщение ] 




Для Мосгорсуда, Роскомнадзора и рекламодателей:: mosgorsud-torrent[собачка]yandex.ru
cron