Торрент файл
скачать торрент магнет ссылка Добавлен: 03 июл 2016, 21:14
Размер: 6.19 ГБ
Сидеров: 115
Личеров: 8
Автор

СообщениеДобавлено: 03 июл 2016, 21:14 

Не в сети
Супермодератор
Аватара пользователя
Дата регистрации:
15 фев 2012, 16:44
Возраст: 28
Спасибо: 7058 / 2147
Сообщения: 58792
Год выхода: 2016
Жанр: фантастика, боевик, комедия, приключения
Режиссер: Тим Миллер

В ролях: Райан Рейнольдс, Морена Баккарин, Джина Карано, ТиДжей Миллер, Эд Скрейн, Рэйчел Шин, Брианна Хилдебранд, Андре Трикоте, Тэйлор Хиксон, Джед Риис

О фильме: Уэйд Уилсон — наёмник. Будучи побочным продуктом программы вооружённых сил под названием «Оружие X», Уилсон приобрёл невероятную силу, проворство и способность к исцелению. Но страшной ценой: его клеточная структура постоянно меняется, а здравомыслие сомнительно. Всё, чего Уилсон хочет, — это держаться на плаву в социальной выгребной яме. Но течение в ней слишком быстрое.



Выпущено: США, Канада/ 20th Century Fox Film Corporation, Marvel Entertainment, TSG Entertainment
Продолжительность: 01:48:06
Перевод: Профессиональный (многоголосый, закадровый) [Кубик в Кубе]
Роли озвучивали: Петр Гланц, Денис Колесников, Ольга Кравцова, Руслан Габидуллин
Файл
Формат: MKV
Качество: BDRip 720p
Видео: MPEG-4 AVC, 6136 kb/s, 1280x536
Аудио: Russian: AC3, 384 kb/s (6 ch) / English: DTS-ES, 1510 kb/s (6 ch)
Субтитры: Russian (forced,full), English(forced,full,SDH)

Общее
Уникальный идентификатор : 188962501395314515697904791419565771480 (0x8E28DA9E74E09B99916C3B66E42E0AD8)
Полное имя : D:загрузкиDeadpool.2016.P.BDRip.720p.mkv
Формат : Matroska
Версия формата : Version 4 / Version 2
Размер файла : 6,19 Гбайт
Продолжительность : 1 ч. 48 м.
Общий поток : 8192 Кбит/сек
Дата кодирования : UTC 2016-07-02 16:48:18
Программа кодирования : mkvmerge v8.3.0 ('Over the Horizon') 64bit
Библиотека кодирования : libebml v1.3.1 + libmatroska v1.4.2
Видео
Идентификатор : 1
Формат : AVC
Формат/Информация : Advanced Video Codec
Профиль формата : High@L4.1
Параметр CABAC формата : Да
Параметр ReFrames формата : 12 кадров
Идентификатор кодека : V_MPEG4/ISO/AVC
Продолжительность : 1 ч. 48 м.
Битрейт : 6136 Кбит/сек
Ширина : 1280 пикселей
Высота : 536 пикселей
Соотношение сторон : 2,40:1
Режим частоты кадров : Постоянный
Частота кадров : 23,976 кадра/сек
Цветовое пространство : YUV
Субдискретизация насыщенности : 4:2:0
Битовая глубина : 8 бит
Тип развёртки : Прогрессивная
Бит/(Пиксели*Кадры) : 0.373
Размер потока : 4,63 Гбайт (75%)
Заголовок : Deadpool.2016.P.720p
Библиотека кодирования : x264 core 148 r2665+53 6629127 t_mod_Custom [8-bit@all X86_64]
Настройки программы : cabac=1 / ref=12 / deblock=1:-3:-3 / analyse=0x3:0x133 / me=umh / subme=11 / psy=1 / fade_compensate=0.00 / psy_rd=1.05:0.00 / mixed_ref=1 / me_range=32 / chroma_me=1 / trellis=2 / 8x8dct=1 / cqm=0 / deadzone=21,11 / fast_pskip=0 / chroma_qp_offset=-2 / threads=16 / lookahead_threads=2 / sliced_threads=0 / nr=0 / decimate=0 / interlaced=0 / bluray_compat=0 / constrained_intra=0 / fgo=0 / bframes=8 / b_pyramid=2 / b_adapt=2 / b_bias=0 / direct=3 / weightb=1 / open_gop=0 / weightp=2 / keyint=250 / keyint_min=23 / scenecut=40 / intra_refresh=0 / rc_lookahead=150 / rc=crf / mbtree=0 / crf=16.2000 / qcomp=0.70 / qpmin=0:0:0 / qpmax=69:69:69 / qpstep=4 / vbv_maxrate=50000 / vbv_bufsize=62500 / crf_max=0.0 / nal_hrd=none / filler=0 / ip_ratio=1.30 / pb_ratio=1.20 / aq=3:0.65 / aq-sensitivity=10.00 / aq-factor=1.00:1.00:1.00 / aq2=0 / aq3=0
Язык : English
Default : Да
Forced : Нет
Коэффициенты матрицы : BT.709
Аудио #1
Идентификатор : 7
Формат : AC-3
Формат/Информация : Audio Coding 3
Расширение режима : CM (complete main)
Параметр Endianness формата : Big
Идентификатор кодека : A_AC3
Продолжительность : 1 ч. 48 м.
Вид битрейта : Постоянный
Битрейт : 384 Кбит/сек
Каналы : 6 каналов
Расположение каналов : Front: L C R, Side: L R, LFE
Частота : 48,0 КГц
Битовая глубина : 16 бит
Метод сжатия : С потерями
Размер потока : 297 Мбайт (5%)
Заголовок : Кубик в Кубе
Язык : Russian
Default : Да
Forced : Нет
Аудио #2
Идентификатор : 8
Формат : DTS
Формат/Информация : Digital Theater Systems
Профиль формата : ES
Режим : 16
Параметр Endianness формата : Big
Идентификатор кодека : A_DTS
Продолжительность : 1 ч. 48 м.
Вид битрейта : Постоянный
Битрейт : 1509 Кбит/сек
Каналы : 6 каналов
Расположение каналов : Front: L C R, Side: L R, LFE
Частота : 48,0 КГц
Битовая глубина : 24 бит
Метод сжатия : С потерями
Размер потока : 1,14 Гбайт (18%)
Язык : English
Default : Нет
Forced : Нет
Текст #1
Идентификатор : 2
Формат : UTF-8
Идентификатор кодека : S_TEXT/UTF8
Идентификатор кодека/Информация : UTF-8 Plain Text
Заголовок : Forced [iTunes]
Язык : Russian
Default : Да
Forced : Нет
Текст #2
Идентификатор : 3
Формат : UTF-8
Идентификатор кодека : S_TEXT/UTF8
Идентификатор кодека/Информация : UTF-8 Plain Text
Заголовок : iTunes
Язык : Russian
Default : Нет
Forced : Нет
Текст #3
Идентификатор : 4
Формат : UTF-8
Идентификатор кодека : S_TEXT/UTF8
Идентификатор кодека/Информация : UTF-8 Plain Text
Заголовок : Forced
Язык : English
Default : Нет
Forced : Нет
Текст #4
Идентификатор : 5
Формат : UTF-8
Идентификатор кодека : S_TEXT/UTF8
Идентификатор кодека/Информация : UTF-8 Plain Text
Заголовок : Original
Язык : English
Default : Нет
Forced : Нет
Текст #5
Идентификатор : 6
Формат : UTF-8
Идентификатор кодека : S_TEXT/UTF8
Идентификатор кодека/Информация : UTF-8 Plain Text
Заголовок : SDH
Язык : English
Default : Нет
Forced : Нет
Меню
00:00:00.000 : en:Chapter 01
00:03:04.726 : en:Chapter 02
00:05:53.019 : en:Chapter 03
00:09:30.820 : en:Chapter 04
00:13:19.090 : en:Chapter 05
00:16:48.716 : en:Chapter 06
00:20:12.545 : en:Chapter 07
00:22:06.408 : en:Chapter 08
00:27:09.628 : en:Chapter 09
00:31:58.959 : en:Chapter 10
00:36:51.709 : en:Chapter 11
00:41:06.172 : en:Chapter 12
00:44:45.766 : en:Chapter 13
00:46:56.605 : en:Chapter 14
00:50:10.966 : en:Chapter 15
00:53:18.028 : en:Chapter 16
00:55:33.038 : en:Chapter 17
00:59:07.753 : en:Chapter 18
01:03:05.240 : en:Chapter 19
01:07:06.439 : en:Chapter 20
01:09:15.568 : en:Chapter 21
01:12:29.720 : en:Chapter 22
01:16:46.393 : en:Chapter 23
01:20:43.714 : en:Chapter 24
01:25:53.398 : en:Chapter 25
01:31:03.792 : en:Chapter 26
01:34:46.973 : en:Chapter 27
01:39:52.737 : en:Chapter 28
]




_________________
Проголосуй за трекер Открытый торрент трекер - RUS-MEDIA.ORG

Проголосуй Открытый торрент трекер - RUS-MEDIA.ORG


Вернуться к началу
 Профиль Отправить личное сообщение  
 
   Похожие торренты   Автор   Торрент   Размер 
В этой теме нет новых непрочитанных сообщений. Дэдпул / Deadpool (Тим Миллер) [2016, фантастика, боевик, комедия, приключения, BDRip-AVC | Кубик в Кубе] mvo

marya111

293 | 6

1.99 ГБ

В этой теме нет новых непрочитанных сообщений. Дэдпул / Deadpool [фантастика, боевик, комедия, приключения, 2016] HDRip, Mvo [Кубик в Кубе]

salma3

310 | 12

1.46 ГБ

В этой теме нет новых непрочитанных сообщений. Дэдпул / Deadpool [Фантастика, боевик, триллер, приключения, комедия, 2016] WEBRip 720p, Dub [Line]

salma3

8542 | 2155

3.94 ГБ

В этой теме нет новых непрочитанных сообщений. Дэдпул / Deadpool [фантастика, боевик, комедия, приключения, 2016] WEBRip, Avo [Zamez]

salma3

2251 | 125

1.46 ГБ

В этой теме нет новых непрочитанных сообщений. Дэдпул / Deadpool [фантастика, боевик, комедия, приключения, 2016] UHD BDRemux 2160p, Dub [4K] [Лицензия]

salma3

12 | 9

60.07 ГБ

В этой теме нет новых непрочитанных сообщений. Дэдпул / Deadpool [Фантастика, боевик, триллер, 2016] BDRip-AVC, Dub [Лицензия]

salma3

446 | 27

745.76 МБ

В этой теме нет новых непрочитанных сообщений. Поглощён Дэдпул / Deadpool [Боевик, Фантастика, 2016] WEBRip, Avo Данный торрент является блокированным, причина: поглощённый торрент

salma3

295 | 8

1.37 ГБ


Начать новую тему Ответить на тему  [ 1 сообщение ] 




Для Мосгорсуда, Роскомнадзора и рекламодателей:: mosgorsud-torrent[собачка]yandex.ru
cron