Торрент файл
скачать торрент магнет ссылка Добавлен: 29 июн 2016, 13:44
Размер: 11.07 ГБ
Сидеров: 10
Личеров: 3
Автор

СообщениеДобавлено: 29 июн 2016, 13:44 

Не в сети
Супермодератор
Аватара пользователя
Дата регистрации:
15 фев 2012, 16:44
Возраст: 28
Спасибо: 6920 / 2147
Сообщения: 52803
Год выхода: 1984
Страна: США
Студия: Angeles Entertainment Group, Cinema Group, Gatlin
Продолжительность: 01:32:08
Жанр: ужасы
Режиссер: Фриц Кирш
В ролях: Питер Хортон, Линда Хэмилтон, Р.Г. Армстронг, Джон Фрэнклин, Кортни Гейнс, Робби Кайджер, Энн Мари МакИвой, Джули Маддалена, Джонас Марлоу, Джон Филбин, ...
Перевод:
- Профессиональный (многоголосный, закадровый) R5
- Профессиональный (двуголосый, закадровый) DDV
- Авторский (одноголосый, закадровый) Гаврилов Андрей Юрьевич
- Любительский (одноголосый, закадровый) Ирэн
- Субтитры
О фильме: В маленьком городке, окруженном кукурузными полями, появляется 12-летний проповедник Исаак. Он призывает детей убивать взрослых, чтобы их кровью напитать жаждущие поля.
Исаак запрещает детям играть, убеждая принести себя в жертву полям в день 18-летия. Многие пытаются бежать, но он настигает их!…



Кодек: x264
Качество: BDRip 1080p
Видео: 1920x1080, 14000 kbps, 23,976 fps
Аудио #1: AC-3, 6 ch, 448 kbps (Rus) - MVO R5
Аудио #2: AC-3, 6 ch, 384 kbps (Rus) - DVO DDV
Аудио #3: AC-3, 6 ch, 640 kbps (Rus) - AVO Гаврилов Андрей Юрьевич
Аудио #4: AC-3, 2 ch, 224 kbps (Rus) - VO Ирэн
Аудио #5: DTS, 6 ch, 1509 kbps (Eng)
Субтитры: Русские, Английские, Английские (SDH)
За исходник спасибо - Diablo
x264 [info]: frame I:741 Avg QP:20.53 size:184811
x264 [info]: frame P:27232 Avg QP:22.14 size:105188
x264 [info]: frame B:104583 Avg QP:23.95 size: 63713
x264 [info]: consecutive B-frames: 1.4% 1.5% 7.5% 13.0% 19.4% 51.8% 3.7% 0.8% 0.4% 0.2% 0.1% 0.1% 0.2%
Общее
Уникальный идентификатор : 188832123944500677251874268453335545337 (0x8E0FBE83ACB5508F80ADD574479135F9)
Полное имя : Дети кукурузы 1 (Children of the Corn) 1984 BDRip 1080p.mkv
Формат : Matroska
Версия формата : Version 2
Размер файла : 11,1 Гбайт
Продолжительность : 1 ч. 32 м.
Общий поток : 17,2 Мбит/сек
Дата кодирования : UTC 2016-06-11 04:54:30
Программа кодирования : mkvmerge v4.0.0 ('The Stars were mine') сборка от Jun 6 2010 16:18:42
Библиотека кодирования : libebml v1.0.0 + libmatroska v1.0.0
Видео
Идентификатор : 1
Формат : AVC
Формат/Информация : Advanced Video Codec
Профиль формата : High@L4.1
Параметр CABAC формата : Да
Параметр ReFrames формата : 4 кадра
Идентификатор кодека : V_MPEG4/ISO/AVC
Продолжительность : 1 ч. 32 м.
Битрейт : 14,0 Мбит/сек
Ширина : 1920 пикселей
Высота : 1080 пикселей
Соотношение сторон : 16:9
Режим частоты кадров : Постоянный
Частота кадров : 23,976 (24000/1001) кадра/сек
Цветовое пространство : YUV
Субдискретизация насыщенности : 4:2:0
Битовая глубина : 8 бит
Тип развёртки : Прогрессивная
Бит/(Пиксели*Кадры) : 0.282
Размер потока : 8,78 Гбайт (79%)
Библиотека кодирования : x264 core 146 r2538 121396c
Настройки программы : cabac=1 / ref=4 / deblock=1:-3:-3 / analyse=0x3:0x133 / me=umh / subme=11 / psy=1 / psy_rd=1.10:0.16 / mixed_ref=1 / me_range=32 / chroma_me=1 / trellis=2 / 8x8dct=1 / cqm=0 / deadzone=21,11 / fast_pskip=0 / chroma_qp_offset=-3 / threads=12 / lookahead_threads=2 / sliced_threads=0 / nr=0 / decimate=0 / interlaced=0 / bluray_compat=0 / constrained_intra=0 / bframes=12 / b_pyramid=2 / b_adapt=2 / b_bias=0 / direct=3 / weightb=1 / open_gop=0 / weightp=2 / keyint=240 / keyint_min=23 / scenecut=40 / intra_refresh=0 / rc_lookahead=60 / rc=2pass / mbtree=0 / bitrate=14000 / ratetol=1.0 / qcomp=0.60 / qpmin=0 / qpmax=69 / qpstep=4 / cplxblur=20.0 / qblur=0.5 / vbv_maxrate=50000 / vbv_bufsize=62500 / nal_hrd=none / filler=0 / ip_ratio=1.40 / pb_ratio=1.30 / aq=1:0.90
Язык : English
Default : Нет
Forced : Нет
Аудио #1
Идентификатор : 2
Формат : AC-3
Формат/Информация : Audio Coding 3
Расширение режима : CM (complete main)
Параметр Endianness формата : Big
Идентификатор кодека : A_AC3
Продолжительность : 1 ч. 32 м.
Вид битрейта : Постоянный
Битрейт : 448 Кбит/сек
Каналы : 6 каналов
Расположение каналов : Front: L C R, Side: L R, LFE
Частота : 48,0 КГц
Частота кадров : 31,250 кадров/сек (1536 spf)
Метод сжатия : С потерями
Размер потока : 295 Мбайт (3%)
Заголовок : MVO R5
Язык : Russian
Default : Нет
Forced : Нет
Аудио #2
Идентификатор : 3
Формат : AC-3
Формат/Информация : Audio Coding 3
Расширение режима : CM (complete main)
Параметр Endianness формата : Big
Идентификатор кодека : A_AC3
Продолжительность : 1 ч. 32 м.
Вид битрейта : Постоянный
Битрейт : 384 Кбит/сек
Каналы : 6 каналов
Расположение каналов : Front: L C R, Side: L R, LFE
Частота : 48,0 КГц
Частота кадров : 31,250 кадров/сек (1536 spf)
Метод сжатия : С потерями
Размер потока : 253 Мбайт (2%)
Заголовок : DVO DDV
Язык : Russian
Default : Нет
Forced : Нет
Аудио #3
Идентификатор : 4
Формат : AC-3
Формат/Информация : Audio Coding 3
Расширение режима : CM (complete main)
Параметр Endianness формата : Big
Идентификатор кодека : A_AC3
Продолжительность : 1 ч. 32 м.
Вид битрейта : Постоянный
Битрейт : 640 Кбит/сек
Каналы : 6 каналов
Расположение каналов : Front: L C R, Side: L R, LFE
Частота : 48,0 КГц
Частота кадров : 31,250 кадров/сек (1536 spf)
Метод сжатия : С потерями
Размер потока : 422 Мбайт (4%)
Заголовок : AVO Гаврилов Андрей Юрьевич
Язык : Russian
Default : Нет
Forced : Нет
Аудио #4
Идентификатор : 5
Формат : AC-3
Формат/Информация : Audio Coding 3
Расширение режима : CM (complete main)
Параметр Endianness формата : Big
Идентификатор кодека : A_AC3
Продолжительность : 1 ч. 32 м.
Вид битрейта : Постоянный
Битрейт : 224 Кбит/сек
Каналы : 2 канала
Расположение каналов : Front: L R
Частота : 48,0 КГц
Частота кадров : 31,250 кадров/сек (1536 spf)
Метод сжатия : С потерями
Размер потока : 148 Мбайт (1%)
Заголовок : VO Ирэн
Язык : Russian
Default : Нет
Forced : Нет
Аудио #5
Идентификатор : 6
Формат : DTS
Формат/Информация : Digital Theater Systems
Режим : 16
Параметр Endianness формата : Big
Идентификатор кодека : A_DTS
Продолжительность : 1 ч. 32 м.
Вид битрейта : Постоянный
Битрейт : 1509 Кбит/сек
Каналы : 6 каналов
Расположение каналов : Front: L C R, Side: L R, LFE
Частота : 48,0 КГц
Частота кадров : 93,750 кадра/сек (512 spf)
Битовая глубина : 16 бит
Метод сжатия : С потерями
Размер потока : 995 Мбайт (9%)
Язык : English
Default : Нет
Forced : Нет
Текст #1
Идентификатор : 7
Формат : UTF-8
Идентификатор кодека : S_TEXT/UTF8
Идентификатор кодека/Информация : UTF-8 Plain Text
Язык : Russian
Default : Нет
Forced : Нет
Текст #2
Идентификатор : 8
Формат : UTF-8
Идентификатор кодека : S_TEXT/UTF8
Идентификатор кодека/Информация : UTF-8 Plain Text
Язык : English
Default : Нет
Forced : Нет
Текст #3
Идентификатор : 9
Формат : UTF-8
Идентификатор кодека : S_TEXT/UTF8
Идентификатор кодека/Информация : UTF-8 Plain Text
Заголовок : SDH
Язык : English
Default : Нет
Forced : Нет



_________________
Проголосуй за трекер Открытый торрент трекер - RUS-MEDIA.ORG

Проголосуй Открытый торрент трекер - RUS-MEDIA.ORG



реклама партнёра


Вернуться к началу
 Профиль Отправить личное сообщение  
 
   Похожие торренты   Автор   Торрент   Размер 
В этой теме нет новых непрочитанных сообщений. Дети кукурузы 4: Сбор урожая / Children of the Corn: The Gathering [ужасы, триллер, 1996] BDRip 1080p, Dvo

salma3

5 | 3

8.13 ГБ

В этой теме нет новых непрочитанных сообщений. Дети кукурузы 5: Поля страха / Children of the Corn V: Fields of Terror [ужасы, триллер, 1998] BDRip 1080p, Mvo

salma3

10 | 7

8.19 ГБ

В этой теме нет новых непрочитанных сообщений. Дети кукурузы 2: Последняя жертва / Children of the Corn II: The Final Sacrifice [ужасы, триллер, 1992] BDRip 1080p, Mvo

salma3

10 | 3

8.29 ГБ

В этой теме нет новых непрочитанных сообщений. Дети тишины / Дети меньшего бога / Children of a Lesser God [драма, мелодрама, 1986] WEBRip 1080p, Dvo

salma3

11 | 9

12.31 ГБ

В этой теме нет новых непрочитанных сообщений. Как малые дети / Little Children [драма, 2006] WEB-DL 720p, Dub

salma3

47 | 11

5.28 ГБ

В этой теме нет новых непрочитанных сообщений. Дети революции / Children of the Revolution [драма, комедия, 1996] DVDRip, Mvo

salma3

0 | 0

1.37 ГБ

В этой теме нет новых непрочитанных сообщений. Дети войны / Children of War [драма, военный, история, 2014] DVDRip, DVO

salma3

53 | 10

1.37 ГБ


Начать новую тему Ответить на тему  [ 1 сообщение ] 




Для Мосгорсуда, Роскомнадзора и рекламодателей:: mosgorsud-torrent[собачка]yandex.ru
cron