Торрент файл
скачать торрент магнет ссылка Добавлен: 29 июн 2016, 13:28
Размер: 6.52 ГБ
Сидеров: 34
Личеров: 3
Автор

СообщениеДобавлено: 29 июн 2016, 13:28 

Не в сети
Супермодератор
Аватара пользователя
Дата регистрации:
15 фев 2012, 16:44
Возраст: 28
Спасибо: 6571 / 2137
Сообщения: 43777
Год выхода: 1994
Жанр: фантастика, боевик, приключения
Режиссер: Роланд Эммерих
В ролях:
Джеймс Спейдер — доктор Дэниел Джексон, Курт Расселл — полковник Джонатан «Джек» О’Нил, Джей Дэвидсон — Ра, Алексис Крус — Скаара, Мили Авитал — Ша’ури, Эрик Авари — Касуф, Джон Дил — лейтенант Чарльз Кавальский, Френч Стюарт — лейтенант Луи Ферретти, Вивека Линдфорс — доктор Кэтрин Лэнгфорд, Карлос Лаучу — Анубис, Джимон Хонсу — Гор, Леон Риппи — генерал Уэст, Кристофер Джон Филдс — сержант Фриман, Дерек Уэбстер — старший лётчик Браун, Джек Мур — Раилли, Стив Джаннелли — Порро.

О фильме:
1928 год. Египет. Археолог находит странное сооружение. Через много лет уже в наше время его дочь привлекает молодого специалиста Джексона для разгадки тайны, над которой бьются ученые на военной базе в горах. Таинственное сооружение оказывается проходом в другие миры. С группой спецназа Джексон и полковник отправляются через звездные врата навстречу неизведанному. А там их ждут суровые испытания и борьба, от исхода которой зависит судьба человечества.



Страна: Франция США
Студия: Canal+ [fr], Carolco Pictures Inc., Centropolis Film Productions
Продолжительность: 02:00:10
Перевод: Профессиональный многоголосый, Профессиональный двухголосый, Авторский одноголосый, Оригинал
Файл
Кодек: x264
Качество: BDRip 720p
Видео: 1280x528 (2,40:1), 23.976 fps, 4045 kbps
Звук:
Аудио #1: AC3, 448 Kbps, 48.0 KHz, 6 ch (Rus) Профессиональный многоголосый, CP Digital
Аудио #2: AC3, 448 Kbps, 48.0 KHz, 6 ch (Rus) Профессиональный многоголосый, OPT
Аудио #3: AC3, 448 Kbps, 48.0 KHz, 6 ch (Rus) Профессиональный двухголосый, П.Гланц и И.Королёва
Аудио #4: AC3, 448 Kbps, 48.0 KHz, 6 ch (Ukr) Профессиональный двухголосый, 1+1
Аудио #5: AC3, 448 Kbps, 48.0 KHz, 6 ch (Rus) Авторский одноголосый, A.Гаврилов
Аудио #6: AC3, 448 Kbps, 48.0 KHz, 6 ch (Rus) Авторский одноголосый, Ю.Живов
Аудио #7: AC3, 448 Kbps, 48.0 KHz, 6 ch (Eng) Оригинал
Субтитры: Русские, Английские


Формат : Matroska
Версия формата : Version 2
Размер файла : 6,52 Гбайт
Продолжительность : 2 ч. 9 м.
Общий поток : 7178 Кбит/сек
Дата кодирования : UTC 2016-06-11 20:41:58
Программа кодирования : mkvmerge v5.4.0 ('Piper') built on Mar 10 2012 13:34:39
Библиотека кодирования : libebml v1.2.3 + libmatroska v1.3.0
Видео
Идентификатор : 1
Формат : AVC
Формат/Информация : Advanced Video Codec
Профиль формата : High@L4.1
Параметр CABAC формата : Да
Параметр ReFrames формата : 4 кадра
Идентификатор кодека : V_MPEG4/ISO/AVC
Продолжительность : 2 ч. 9 м.
Битрейт : 4045 Кбит/сек
Ширина : 1280 пикселей
Высота : 528 пикселей
Соотношение сторон : 2,40:1
Режим частоты кадров : Постоянный
Частота кадров : 23,976 кадра/сек
Цветовое пространство : YUV
Субдискретизация насыщенности : 4:2:0
Битовая глубина : 8 бит
Тип развёртки : Прогрессивная
Бит/(Пиксели*Кадры) : 0.250
Размер потока : 3,54 Гбайт (54%)
Заголовок : Stargate / Звездные врата (1994)
Библиотека кодирования : x264 core 138 r2358 9e941d1
Настройки программы : cabac=1 / ref=3 / deblock=1:-3:-3 / analyse=0x3:0x113 / me=umh / subme=10 / psy=1 / psy_rd=1.00:0.00 / mixed_ref=1 / me_range=64 / chroma_me=1 / trellis=2 / 8x8dct=1 / cqm=0 / deadzone=21,11 / fast_pskip=0 / chroma_qp_offset=-2 / threads=3 / lookahead_threads=1 / sliced_threads=0 / nr=0 / decimate=1 / interlaced=0 / bluray_compat=0 / constrained_intra=0 / bframes=3 / b_pyramid=2 / b_adapt=1 / b_bias=0 / direct=1 / weightb=1 / open_gop=0 / weightp=2 / keyint=240 / keyint_min=23 / scenecut=40 / intra_refresh=0 / rc_lookahead=40 / rc=2pass / mbtree=1 / bitrate=4045 / ratetol=1.0 / qcomp=0.60 / qpmin=10 / qpmax=51 / qpstep=4 / cplxblur=20.0 / qblur=0.5 / vbv_maxrate=62500 / vbv_bufsize=78125 / nal_hrd=none / ip_ratio=1.40 / aq=1:1.00
Язык : English
Default : Да
Forced : Нет
Аудио #1
Идентификатор : 2
Формат : AC-3
Формат/Информация : Audio Coding 3
Расширение режима : CM (complete main)
Параметр Endianness формата : Big
Идентификатор кодека : A_AC3
Продолжительность : 2 ч. 9 м.
Вид битрейта : Постоянный
Битрейт : 448 Кбит/сек
Каналы : 6 каналов
Расположение каналов : Front: L C R, Side: L R, LFE
Частота : 48,0 КГц
Битовая глубина : 16 бит
Метод сжатия : С потерями
Размер потока : 417 Мбайт (6%)
Заголовок : MVO (Russian) CP Digital
Язык : Russian
Default : Да
Forced : Нет
Аудио #2
Идентификатор : 3
Формат : AC-3
Формат/Информация : Audio Coding 3
Расширение режима : CM (complete main)
Параметр Endianness формата : Big
Идентификатор кодека : A_AC3
Продолжительность : 2 ч. 9 м.
Вид битрейта : Постоянный
Битрейт : 448 Кбит/сек
Каналы : 6 каналов
Расположение каналов : Front: L C R, Side: L R, LFE
Частота : 48,0 КГц
Битовая глубина : 16 бит
Метод сжатия : С потерями
Размер потока : 417 Мбайт (6%)
Заголовок : MVO (Russian) OPT
Язык : Russian
Default : Нет
Forced : Нет
Аудио #3
Идентификатор : 4
Формат : AC-3
Формат/Информация : Audio Coding 3
Расширение режима : CM (complete main)
Параметр Endianness формата : Big
Идентификатор кодека : A_AC3
Продолжительность : 2 ч. 9 м.
Вид битрейта : Постоянный
Битрейт : 448 Кбит/сек
Каналы : 6 каналов
Расположение каналов : Front: L C R, Side: L R, LFE
Частота : 48,0 КГц
Битовая глубина : 16 бит
Метод сжатия : С потерями
Размер потока : 417 Мбайт (6%)
Заголовок : DVO (Russian) П.Гланц и И.Королёва
Язык : Russian
Default : Нет
Forced : Нет
Аудио #4
Идентификатор : 5
Формат : AC-3
Формат/Информация : Audio Coding 3
Расширение режима : CM (complete main)
Параметр Endianness формата : Big
Идентификатор кодека : A_AC3
Продолжительность : 2 ч. 9 м.
Вид битрейта : Постоянный
Битрейт : 448 Кбит/сек
Каналы : 6 каналов
Расположение каналов : Front: L C R, Side: L R, LFE
Частота : 48,0 КГц
Битовая глубина : 16 бит
Метод сжатия : С потерями
Размер потока : 417 Мбайт (6%)
Заголовок : DVO (Ukrainian) 1+1
Язык : Ukrainian
Default : Нет
Forced : Нет
Аудио #5
Идентификатор : 6
Формат : AC-3
Формат/Информация : Audio Coding 3
Расширение режима : CM (complete main)
Параметр Endianness формата : Big
Идентификатор кодека : A_AC3
Продолжительность : 2 ч. 9 м.
Вид битрейта : Постоянный
Битрейт : 448 Кбит/сек
Каналы : 6 каналов
Расположение каналов : Front: L C R, Side: L R, LFE
Частота : 48,0 КГц
Битовая глубина : 16 бит
Метод сжатия : С потерями
Размер потока : 417 Мбайт (6%)
Заголовок : AVO (А.Гаврилов)
Язык : Russian
Default : Нет
Forced : Нет
Аудио #6
Идентификатор : 7
Формат : AC-3
Формат/Информация : Audio Coding 3
Расширение режима : CM (complete main)
Параметр Endianness формата : Big
Идентификатор кодека : A_AC3
Продолжительность : 2 ч. 9 м.
Вид битрейта : Постоянный
Битрейт : 448 Кбит/сек
Каналы : 6 каналов
Расположение каналов : Front: L C R, Side: L R, LFE
Частота : 48,0 КГц
Битовая глубина : 16 бит
Метод сжатия : С потерями
Размер потока : 417 Мбайт (6%)
Заголовок : AVO (Ю.Живов)
Язык : Russian
Default : Нет
Forced : Нет
Аудио #7
Идентификатор : 8
Формат : AC-3
Формат/Информация : Audio Coding 3
Расширение режима : CM (complete main)
Параметр Endianness формата : Big
Идентификатор кодека : A_AC3
Продолжительность : 2 ч. 9 м.
Вид битрейта : Постоянный
Битрейт : 448 Кбит/сек
Каналы : 6 каналов
Расположение каналов : Front: L C R, Side: L R, LFE
Частота : 48,0 КГц
Битовая глубина : 16 бит
Метод сжатия : С потерями
Размер потока : 417 Мбайт (6%)
Заголовок : Original (English)
Язык : English
Default : Нет
Forced : Нет
Текст #1
Идентификатор : 9
Формат : UTF-8
Идентификатор кодека : S_TEXT/UTF8
Идентификатор кодека/Информация : UTF-8 Plain Text
Заголовок : Rus
Язык : Russian
Default : Нет
Forced : Нет
Текст #2
Идентификатор : 10
Формат : UTF-8
Идентификатор кодека : S_TEXT/UTF8
Идентификатор кодека/Информация : UTF-8 Plain Text
Заголовок : Eng
Язык : English
Default : Нет
Forced : Нет
Меню
00:00:00.000 : en:Chapter 01
00:04:00.365 : en:Chapter 02
00:06:42.068 : en:Chapter 03
00:10:24.790 : en:Chapter 04
00:12:08.602 : en:Chapter 05
00:21:35.292 : en:Chapter 06
00:28:50.353 : en:Chapter 07
00:33:23.418 : en:Chapter 08
00:36:06.080 : en:Chapter 09
00:44:40.135 : en:Chapter 10
00:51:14.988 : en:Chapter 11
00:55:36.166 : en:Chapter 12
01:01:27.141 : en:Chapter 13
01:12:55.954 : en:Chapter 14
01:16:49.187 : en:Chapter 15
01:23:59.283 : en:Chapter 16
01:27:04.761 : en:Chapter 17
01:31:51.546 : en:Chapter 18
01:43:10.058 : en:Chapter 19
01:45:41.585 : en:Chapter 20
01:49:30.104 : en:Chapter 21
01:58:17.173 : en:Chapter 22
02:01:32.493 : en:Chapter 23
02:03:25.356 : en:Chapter 24
02:09:36.393 : en:Chapter 25


_________________
Проголосуй за трекер Открытый торрент трекер - RUS-MEDIA.ORG

Проголосуй Открытый торрент трекер - RUS-MEDIA.ORG



реклама партнёра


Вернуться к началу
 Профиль Отправить личное сообщение  
 
   Похожие торренты   Автор   Торрент   Размер 
В этой теме нет новых непрочитанных сообщений. Звездные врата: Атлантида / Stargate: Atlantis [S04] [Фантастика, боевик, приключения, 2007-2008] BDRip 1080p, Mvo [ТВ3]

salma3

11 | 7

79.5 ГБ

В этой теме нет новых непрочитанных сообщений. Звездные врата: Континуум / Stargate: Continuum [фантастика, фэнтези, приключения, 2008] BDRip 1080p, Mvo

salma3

38 | 12

4.35 ГБ

В этой теме нет новых непрочитанных сообщений. Звездные врата: Ковчег Истины / Stargate: The Ark of Truth [фантастика, фэнтези, приключения, 2008] BDRip 1080p, Mvo

salma3

176 | 34

8.8 ГБ

В этой теме нет новых непрочитанных сообщений. Звёздные Врата: Атлантида / Stargate: Atlantis [S01-05] [Фантастика, 2004-2009] WEB-DL 720p, Mvo

salma3

30 | 50

131.04 ГБ

В этой теме нет новых непрочитанных сообщений. Изгой-один: Звёздные войны. Истории / Rogue One [фантастика, боевик, приключения, 2016] BDRip 720p, Dub+Sub [iTunes]

salma3

1104 | 499

7.39 ГБ

В этой теме нет новых непрочитанных сообщений. Звёздные войны: Пробуждение силы / Star Wars: Episode VII - The Force Awakens (фантастика, фэнтези, боевик, приключения, 2015) BDRip 720p от HELLYWOOD | Лицензия, P, A

marya111

93 | 22

7.95 ГБ

В этой теме нет новых непрочитанных сообщений. Врата воинов / Warriors Gate [боевик, приключения, 2016] BDRip 720p, Mvo

salma3

72 | 6

4.56 ГБ


Начать новую тему Ответить на тему  [ 1 сообщение ] 




Для Мосгорсуда, Роскомнадзора и рекламодателей:: mosgorsud-torrent[собачка]yandex.ru